<?xml version="1.0" standalone="no"?>
<!DOCTYPE svg PUBLIC "-//W3C//DTD SVG 1.1//EN" "http://www.w3.org/Graphics/SVG/1.1/DTD/svg11.dtd" >
<svg xmlns="http://www.w3.org/2000/svg">
<metadata></metadata>
<defs>
<font id="vincentregular" horiz-adv-x="942" >
<font-face units-per-em="2048" ascent="1638" descent="-410" />
<missing-glyph horiz-adv-x="512" />
<glyph horiz-adv-x="2048" />
<glyph horiz-adv-x="2048" />
<glyph unicode="&#xd;" horiz-adv-x="2048" />
<glyph unicode=" "  horiz-adv-x="512" />
<glyph unicode="&#x09;" horiz-adv-x="512" />
<glyph unicode="&#xa0;" horiz-adv-x="512" />
<glyph unicode="!" horiz-adv-x="421" d="M0 25v168q0 10 7 17t18 7h168q11 0 17.5 -6.5t6.5 -17.5v-168q0 -11 -7 -18t-17 -7h-168q-11 0 -18 7t-7 18zM0 438q0 -9 7.5 -16.5t17.5 -7.5h168q10 0 17 7.5t7 16.5v1098q0 9 -7 17t-17 8h-168q-10 0 -17.5 -8t-7.5 -17v-1098z" />
<glyph unicode="'" horiz-adv-x="378" d="M0 1415v166q0 11 7 18t18 7h165q10 0 17.5 -7t7.5 -18v-166v-49v-4v-27q-8 -8 -16 -18l-58 -57l-18 -17h-25h-59q-9 0 -17 7.5t-8 17.5v49v24h2h25h16h25q8 9 18 17l17 18v8q0 7 -25 7h-67q-11 0 -18 7t-7 17z" />
<glyph unicode="," horiz-adv-x="401" d="M0 27v166q0 10 7 17t18 7h165q11 0 18 -7t7 -17v-166v-50v-4v-26q-8 -9 -16 -19l-58 -57l-18 -16h-25h-59q-9 0 -17 7t-8 17v49v25h2h25h16h25q8 8 18 16l17 19v8q0 6 -25 6h-67q-11 0 -18 7t-7 18z" />
<glyph unicode="-" horiz-adv-x="1212" d="M358 588q0 -10 7 -17.5t18 -7.5h446q11 0 18 7.5t7 17.5v141q0 9 -7.5 17t-17.5 8h-446q-10 0 -17.5 -8t-7.5 -17v-141z" />
<glyph unicode="." horiz-adv-x="421" d="M0 25q0 -11 7 -18t18 -7h168q10 0 17 7t7 18v168q0 11 -6.5 17.5t-17.5 6.5h-168q-11 0 -18 -7t-7 -17v-168z" />
<glyph unicode="/" horiz-adv-x="1228" d="M0 25l457 1505q0 10 6.5 17t17.5 7h168q9 0 17 -7t8 -17l-457 -1505q0 -10 -7.5 -17.5t-16.5 -7.5h-168q-11 0 -18 7t-7 18z" />
<glyph unicode="0" d="M0 229q0 -25 16 -41l172 -172q16 -16 41 -16h277q25 0 41 16l172 172q16 16 16 41v1098q0 25 -16 41l-172 172q-16 16 -41 16h-277q-25 0 -41 -16l-172 -170q-16 -20 -16 -43v-1098zM217 319v918q0 23 16 43l46 43q14 18 40 18h97q25 0 43 -18l43 -43q16 -16 16 -43v-918 q0 -27 -16 -40l-43 -46q-20 -16 -43 -16h-97q-24 0 -40 16l-46 46q-16 16 -16 40z" />
<glyph unicode="1" horiz-adv-x="819" d="M0.5 1114.5q-2.5 9.5 3.5 18.5l232 405q15 23 20 23h33h59h49h62q9 0 16.5 -8t7.5 -17v-1294q0 -9 7.5 -17t17.5 -8h133q11 0 18 -7t7 -17v-168q0 -11 -7 -18t-18 -7h-133h-49h-170h-49h-129q-11 0 -18 7t-7 18v168q0 10 7 17t18 7h129q10 0 17 8t7 17v884q0 22 -12 4 l-59 -106q-6 -9 -16 -11.5t-19 3.5l-146 84q-9 5 -11.5 14.5z" />
<glyph unicode="2" d="M0 25q0 -11 7 -18t18 -7h686q9 0 16.5 7.5t7.5 17.5v168q0 9 -7 17t-17 9h-469q-10 0 -17.5 7.5t-7.5 17.5v356q0 23 16 43l46 43q19 19 40 19h187q23 0 43 16l170 172q8 6 12.5 18.5t3.5 22.5v395q0 23 -16 43l-172 170q-15 19 -41 19h-277q-9 0 -22 -6t-19 -13 l-172 -170q-16 -20 -16 -43v-211q0 -10 7 -17t18 -7h168q11 0 17.5 7t6.5 17v123q0 21 16 41l46 43q14 18 40 18h97q25 0 43 -18l43 -43q14 -14 18 -43v-215q0 -25 -18 -43l-43 -43q-16 -16 -43 -16h-185q-24 0 -43 -19l-172 -170q-16 -20 -16 -43v-665z" />
<glyph unicode="3" d="M0 229v213q0 10 7 17.5t18 7.5h168q10 0 17 -7t7 -18v-123q0 -25 19 -40l43 -43q15 -19 40 -19h97q24 0 43 19l43 43q18 18 18 40v297q0 25 -18 43l-43 43q-19 19 -41 19h-142q-10 0 -17 6.5t-7 17.5v168q0 9 7 17t17 8h142q21 0 41 16l43 45q18 14 18 41v199 q0 25 -18 43l-43 43q-16 16 -43 16h-97q-27 0 -40 -16l-43 -43q-19 -19 -19 -43v-123q0 -10 -6.5 -17t-17.5 -7h-168q-11 0 -18 7t-7 17v213q0 23 16 43l172 170q17 17 41 17h277q26 0 43 -17l170 -170q18 -18 18 -43v-379q0 -25 -16 -41l-64 -63q-7 -6 -7 -17t7 -18l64 -61 q16 -20 16 -43v-478q0 -23 -18 -41l-170 -172q-20 -16 -43 -16h-277q-21 0 -41 16l-172 172q-16 20 -16 41z" />
<glyph unicode="4" horiz-adv-x="946" d="M0 690v256q0 24 14 45l369 547q17 21 39 21h184q9 0 17 -8t8 -17v-625q0 -11 6.5 -17.5t17.5 -6.5h62q9 0 16.5 -8t7.5 -17v-170q0 -9 -7.5 -16.5t-16.5 -7.5h-62q-10 0 -17 -7t-7 -18v-616q0 -10 -8 -17.5t-17 -7.5h-170q-9 0 -16.5 7.5t-7.5 17.5v616q0 11 -7 18t-18 7 h-362q-10 0 -17.5 7.5t-7.5 16.5zM216.5 890.5q3.5 -5.5 12.5 -5.5h158q11 0 18 7t7 17v256q0 11 -4.5 12t-10.5 -8l-178 -264q-6 -9 -2.5 -14.5z" />
<glyph unicode="5" horiz-adv-x="940" d="M-14 229q0 -25 16 -41l170 -172q20 -16 43 -16h274q23 0 43 16l170 172q7 6 13 19t6 22v543q0 22 -19 41l-170 170q-14 18 -40 18h-187q-22 0 -43 17l-43 45q-16 13 -16 41v211q0 22 22 26h469q10 0 17.5 7.5t7.5 17.5v168q0 9 -7.5 17t-17.5 8h-684q-10 0 -17 -8t-7 -17 v-520q0 -25 16 -41l172 -170q6 -7 19 -13t22 -6h186q25 0 41 -16l45 -45q17 -17 17 -41v-363q0 -25 -19 -40l-43 -46q-20 -16 -41 -16h-96q-23 0 -43 16l-43 43q-16 16 -16 43v123q0 9 -8 17t-17 8h-168q-10 0 -17 -8t-7 -17v-213z" />
<glyph unicode="6" d="M0 229q0 -23 18 -41l170 -172q20 -16 43 -16h277q21 0 41 16l170 172q18 18 18 41v445q0 25 -18 43l-170 170q-18 18 -41 18h-266q-9 0 -17 7.5t-8 17.5v309q0 24 19 43l43 43q16 16 43 16h96q25 0 41 -16l43 -43q18 -18 18 -43v-123q0 -10 7 -17t18 -7h168q11 0 17.5 7 t6.5 17v213q0 25 -18 43l-170 170q-17 17 -41 17h-277q-26 0 -43 -17l-170 -170q-18 -18 -18 -43v-1100zM217 319v265q0 24 19 43l43 43q18 18 40 18h99q23 0 41 -18l43 -43q18 -18 18 -43v-265q0 -26 -18 -40l-43 -43q-19 -19 -41 -19h-96q-24 0 -43 19l-43 43 q-19 15 -19 40z" />
<glyph unicode="7" horiz-adv-x="974" d="M0 1360v168q0 9 7.5 16.5t17.5 7.5h716q10 0 17.5 -7.5t7.5 -16.5v-172q0 -23 -8 -47l-142 -408q-3 -9 2 -15.5t15 -6.5h43q9 0 16.5 -8t7.5 -17v-168q0 -9 -7.5 -16.5t-16.5 -7.5h-119q-9 0 -18.5 -7t-12.5 -16l-215 -616q-8 -23 -32 -23h-187q-9 0 -14 7t-2 16l215 616 q3 9 -3 16t-16 7h-94q-9 0 -16.5 7.5t-7.5 16.5v168q0 9 7.5 17t16.5 8h170q10 0 20 6.5t13 15.5l143 412q3 9 -2 15.5t-14 6.5h-483q-11 0 -18 7.5t-7 17.5z" />
<glyph unicode="8" horiz-adv-x="925" d="M0 225v508q0 21 16 41l62 62q8 6 8 16t-8 16l-62 62q-16 20 -16 41v362q0 25 16 41l168 168q17 17 41 17h271q26 0 43 -17l166 -168q18 -14 18 -41v-362q0 -23 -18 -41l-62 -62q-6 -6 -6 -16t6 -16l62 -62q18 -18 18 -41v-508q0 -23 -18 -41l-166 -168q-20 -16 -43 -16 h-271q-21 0 -41 16l-168 168q-16 20 -16 41zM213 313q0 -21 16 -41l43 -43q20 -16 41 -16h95q25 0 41 16l43 43q18 18 18 41v332q0 23 -18 41l-43 43q-16 16 -41 16h-95q-21 0 -41 -16l-43 -43q-16 -20 -16 -41v-332zM213 1059q0 -21 16 -41l43 -43q21 -17 41 -17h95 q24 0 41 17l43 43q18 18 18 41v186q0 27 -18 41l-43 43q-14 17 -41 17h-95q-24 0 -41 -17l-43 -43q-16 -16 -16 -41v-186z" />
<glyph unicode="9" d="M0 229q0 -21 16 -41l172 -172q20 -16 41 -16h277q23 0 43 16l170 172q18 18 18 41v1100q0 25 -18 43l-170 170q-17 17 -43 17h-277q-24 0 -41 -17l-172 -170q-16 -20 -16 -43v-444q0 -21 16 -41l172 -172q21 -17 41 -17h267q9 0 16.5 -7.5t7.5 -16.5v-312q0 -22 -18 -40 l-43 -43q-19 -19 -43 -19h-97q-25 0 -40 19l-43 43q-19 19 -19 40v123q0 11 -7 18t-17 7h-168q-11 0 -18 -7.5t-7 -17.5v-213zM217 975v264q0 24 19 43l43 43q13 16 40 16h97q27 0 43 -16l43 -43q18 -18 18 -43v-264q0 -9 -5.5 -22t-12.5 -19l-43 -45q-21 -17 -41 -17h-99 q-23 0 -40 17l-43 45q-7 6 -13 19t-6 22z" />
<glyph unicode=":" horiz-adv-x="421" d="M0 25q0 -11 7 -18t18 -7h168q10 0 17 7t7 18v168q0 11 -6.5 17.5t-17.5 6.5h-168q-11 0 -18 -7t-7 -17v-168zM0 770q0 -9 7.5 -17t17.5 -8h168q10 0 17 8t7 17v170q0 9 -7 17t-17 8h-168q-10 0 -17.5 -8t-7.5 -17v-170z" />
<glyph unicode=";" horiz-adv-x="421" d="M0 25v168q0 10 8 17t17 7h168q11 0 17.5 -6.5t6.5 -17.5v-168v-50v-4v-24q-8 -9 -18 -19l-58 -57l-18 -18h-25h-59q-9 0 -17 7t-8 17v51v25l2 -2h25h16h25l18 18l19 19v6q0 6 -25 6h-69q-9 0 -17 8t-8 17zM0 772q0 -10 7 -17t18 -7h168q11 0 17.5 7t6.5 17v168q0 9 -7 17 t-17 8h-168q-10 0 -17.5 -8t-7.5 -17v-168z" />
<glyph unicode="?" d="M0 1116q0 -10 7 -17t18 -7h168q11 0 17.5 7t6.5 17v123q0 24 19 43l43 43q16 16 40 16h97q23 0 43 -16l43 -45q18 -14 18 -41v-217q0 -9 -5.5 -22t-12.5 -19l-43 -45q-20 -16 -41 -16h-137q-9 0 -17 -7.5t-8 -17.5v-459q0 -9 8 -16.5t17 -7.5h168q10 0 17 7.5t7 16.5v242 q0 10 8 17t17 7h10q20 0 41 17l170 172q18 18 18 41v397q0 27 -18 41l-170 172q-17 17 -43 17h-277q-24 0 -41 -17l-172 -172q-16 -16 -16 -41v-213zM260 25v168q0 10 7 17t18 7h168q11 0 17.5 -6.5t6.5 -17.5v-168q0 -11 -7 -18t-17 -7h-168q-11 0 -18 7t-7 18z" />
<glyph unicode="A" horiz-adv-x="1118" d="M0 25l360 1511q8 23 31 23h166h2l16 -7q9 -8 11 -16l368 -1511q1 -4 1 -7q0 -6 -3 -10q-5 -8 -16 -8h-178q-24 0 -31 25l-51 215q-2 9 -11.5 16t-19.5 6h-336q-11 0 -20 -6.5t-10 -15.5l-52 -215q-1 -10 -10 -17.5t-20 -7.5h-177q-10 0 -16 7q-4 5 -4 13v5zM342 508 q-1 -10 4 -17.5t14 -7.5h232q10 0 16 8q4 5 3 11q0 3 -1 6l-129 530q-3 10 -6 10l-6 -10z" />
<glyph unicode="B" d="M0 25v1511q0 10 7 17.5t18 7.5h483q22 0 41 -19l170 -170q18 -18 18 -41v-387q0 -27 -18 -41l-60 -61q-7 -7 -7.5 -18t5.5 -17l64 -64q16 -20 16 -41v-473q0 -23 -18 -41l-170 -170q-18 -18 -41 -18h-266h-25h-24h-168q-11 0 -18 7t-7 18zM217 242q0 -10 7.5 -17.5 t17.5 -7.5h176q25 0 41 16l45 46q16 16 16 40v293q0 23 -16 43l-41 41q-19 19 -41 19h-180q-10 0 -17.5 -8t-7.5 -17v-448zM217 956q0 -10 7 -17t18 -7h176q28 0 41 16l45 43q16 20 16 43v207q0 25 -16 41l-45 45q-16 16 -41 16h-176q-11 0 -18 -7t-7 -17v-363z" />
<glyph unicode="C" horiz-adv-x="940" d="M0 229v1100q0 25 16 41l172 172q17 17 41 17h277q24 0 41 -17l170 -172q18 -14 18 -41v-213q0 -9 -7 -16.5t-17 -7.5h-168q-9 0 -17 7.5t-8 16.5v123q0 23 -16 43l-45 43q-16 16 -41 16h-97q-24 0 -40 -16l-46 -43q-16 -20 -16 -43v-920q0 -24 16 -40l46 -46 q16 -16 40 -16h97q25 0 41 16l45 46q16 16 16 40v123q0 10 8 17.5t17 7.5h168q10 0 17 -7t7 -18v-213q0 -9 -5.5 -22t-12.5 -19l-170 -172q-16 -16 -41 -16h-277q-25 0 -41 16l-172 172q-16 16 -16 41z" />
<glyph unicode="D" d="M0 25q0 -11 7 -18t18 -7h483q9 0 22 5.5t19 12.5l170 170q7 6 12.5 19t5.5 22v1100q0 25 -18 43l-170 170q-14 17 -41 17h-483q-11 0 -18 -7.5t-7 -17.5v-1509zM217 242v1075q0 10 8 17t17 7h176q25 0 41 -16l43 -43q18 -18 18 -43v-920q0 -26 -18 -40l-43 -43 q-6 -7 -19 -13t-22 -6h-176q-9 0 -17 8t-8 17z" />
<glyph unicode="E" horiz-adv-x="831" d="M0 25v1507q0 10 7 17t18 7h577q9 0 17 -7t8 -17v-168q0 -10 -8 -17.5t-17 -7.5h-360q-11 0 -18 -7t-7 -17v-291q0 -10 7.5 -17.5t17.5 -7.5h272q9 0 17 -7.5t8 -16.5v-168q0 -10 -8 -17.5t-17 -7.5h-272q-10 0 -17.5 -7.5t-7.5 -16.5v-516q0 -10 7.5 -17.5t17.5 -7.5h360 q9 0 17 -7t8 -17v-168q0 -10 -8 -17.5t-17 -7.5h-577q-11 0 -18 7t-7 18z" />
<glyph unicode="F" horiz-adv-x="819" d="M0 25v1509q0 10 7 17.5t18 7.5h575q10 0 17.5 -7.5t7.5 -17.5v-168q0 -9 -7.5 -17t-17.5 -8h-358q-11 0 -18 -7t-7 -17v-356q0 -11 7.5 -18t17.5 -7h241q11 0 18 -7t7 -18v-168q0 -9 -7.5 -16.5t-17.5 -7.5h-241q-10 0 -17.5 -7.5t-7.5 -17.5v-669q0 -10 -7.5 -17.5 t-16.5 -7.5h-168q-11 0 -18 7t-7 18z" />
<glyph unicode="G" horiz-adv-x="940" d="M0 229v1100q0 21 16 41l172 170q6 7 19 13t22 6h277q22 0 41 -19l170 -170q18 -18 18 -41v-213q0 -10 -7.5 -17t-16.5 -7h-168q-11 0 -18 7t-7 17v123q0 25 -16 41l-45 43q-6 7 -19 12.5t-22 5.5h-97q-26 0 -40 -18l-46 -43q-16 -16 -16 -41v-920q0 -24 16 -40l46 -46 q16 -16 40 -16h97q25 0 41 16l45 46q16 16 16 40v373q0 11 -7 18t-17 7h-103q-10 0 -17 7.5t-7 16.5v168q0 11 7 18t17 7h320q9 0 16.5 -7.5t7.5 -17.5v-680q0 -9 -5.5 -22t-12.5 -19l-170 -172q-20 -16 -41 -16h-277q-25 0 -41 16l-172 172q-16 16 -16 41z" />
<glyph unicode="H" horiz-adv-x="931" d="M0 25v1509q0 10 7 17.5t18 7.5h168q9 0 16.5 -7.5t7.5 -17.5v-573q0 -11 7.5 -18t17.5 -7h243q11 0 18 7t7 18v573q0 10 8 17.5t17 7.5h167q10 0 17.5 -7.5t7.5 -17.5v-1509q0 -11 -7.5 -18t-17.5 -7h-167q-9 0 -17 7.5t-8 17.5v669q0 10 -7 17.5t-18 7.5h-243 q-10 0 -17.5 -7.5t-7.5 -17.5v-669q0 -10 -7.5 -17.5t-16.5 -7.5h-168q-11 0 -18 7t-7 18z" />
<glyph unicode="I" horiz-adv-x="829" d="M0 25v168q0 9 7.5 16.5t17.5 7.5h172q10 0 17 7t7 18v1071q0 11 -6.5 17.5t-17.5 6.5h-172q-10 0 -17.5 8t-7.5 17v168q0 10 7 17t18 7h616q9 0 17 -7t8 -17v-168q0 -9 -8 -17t-17 -8h-178q-9 0 -17 -7t-8 -17v-1071q0 -10 8 -17.5t17 -7.5h178q9 0 17 -7.5t8 -16.5v-168 q0 -10 -8 -17.5t-17 -7.5h-616q-11 0 -18 7t-7 18z" />
<glyph unicode="J" horiz-adv-x="958" d="M0 229v211q0 10 7 17.5t18 7.5h168q9 0 16.5 -7.5t7.5 -17.5v-121q0 -23 16 -43l43 -43q20 -16 43 -16h95q23 0 43 16l43 43q16 16 16 43v1219q0 10 8 17.5t17 7.5h168q10 0 17 -7t7 -18v-1309q0 -23 -16 -43l-170 -170q-20 -16 -43 -16h-275q-23 0 -43 16l-170 170 q-16 20 -16 43z" />
<glyph unicode="K" horiz-adv-x="983" d="M0 25v1511q0 9 7.5 17t17.5 8h168q10 0 17 -8t7 -17v-537q0 -11 3.5 -12t8.5 8l299 543q12 23 37 23h199q8 0 12 -7q2 -3 2 -7t-2 -9l-299 -543q-11 -23 -4 -45l303 -927q1 -3 1 -6q1 -5 -3 -10q-6 -7 -16 -7h-178q-10 0 -20 7t-13 16l-217 665q-2 7 -6 9.5t-8 0.5t-7 -8 l-80 -145q-12 -24 -12 -47v-473q0 -11 -7 -18t-17 -7h-168q-11 0 -18 7t-7 18z" />
<glyph unicode="L" horiz-adv-x="874" d="M0 25v1505q0 10 7 17t18 7h168q9 0 16.5 -7t7.5 -17v-1288q0 -10 7.5 -17.5t17.5 -7.5h403q10 0 17.5 -7.5t7.5 -16.5v-168q0 -11 -7 -18t-18 -7h-620q-11 0 -18 7t-7 18z" />
<glyph unicode="M" horiz-adv-x="1058" d="M-4 25v1503q0 9 7.5 16.5t16.5 7.5h173q25 0 32 -24l181 -641q2 -7 4.5 -9.5t5 0t4.5 9.5l184 641q3 10 12.5 17t18.5 7h174q9 0 17 -7.5t8 -16.5v-1503q0 -10 -8 -17.5t-17 -7.5h-168q-11 0 -18 7t-7 18v737q0 9 -2.5 9.5t-3.5 -9.5l-127 -436q-8 -23 -30 -23h-82 q-23 0 -31 23l-121 424q-6 21 -6 0v-725q0 -11 -7.5 -18t-17.5 -7h-168q-9 0 -16.5 7.5t-7.5 17.5z" />
<glyph unicode="N" d="M4 25v1509q0 10 7 17.5t18 7.5h168q24 0 32 -23l283 -784q2 -6 4 -8t3 0.5t1 9.5v782q0 9 8 17t17 8h168q10 0 17 -8t7 -17v-1511q0 -11 -7 -18t-17 -7h-135q-10 0 -20 7t-13 16l-316 878q-8 16 -8 -2v-874q0 -10 -7.5 -17.5t-16.5 -7.5h-168q-11 0 -18 7t-7 18z" />
<glyph unicode="O" horiz-adv-x="940" d="M0 229v1098q0 23 16 43l172 170q13 16 41 16h277q28 0 41 -16l172 -170q16 -20 16 -43v-1098q0 -25 -16 -41l-172 -172q-16 -16 -41 -16h-277q-25 0 -41 16l-172 172q-16 16 -16 41zM217 319q0 -24 16 -40l46 -46q16 -16 40 -16h97q23 0 43 16l43 46q18 14 18 40v918 q0 25 -18 43l-43 43q-18 18 -43 18h-97q-26 0 -40 -18l-46 -43q-16 -20 -16 -43v-918z" />
<glyph unicode="P" horiz-adv-x="919" d="M0 25v1509q0 10 7 17.5t18 7.5h481q24 0 41 -17l170 -170q18 -18 18 -43v-510q0 -25 -18 -43l-170 -170q-16 -16 -41 -16h-264q-9 0 -17 -8t-8 -17v-540q0 -11 -7 -18t-17 -7h-166q-23 0 -27 25zM217 831q0 -10 7 -17t18 -7h174q28 0 41 16l45 43q16 20 16 43v330 q0 23 -16 43l-45 43q-16 16 -41 16h-174q-11 0 -18 -7t-7 -17v-486z" />
<glyph unicode="Q" horiz-adv-x="978" d="M0 231v1098q0 23 16 43l172 170q17 17 41 17h277q20 0 41 -17l170 -170q18 -18 18 -43v-1098q0 -22 -14 -36q-5 -4 -3 -14t9 -17l70 -70q9 -9 9 -17.5t-9 -17.5l-41 -43q-20 -16 -43 -16h-105q-25 0 -39 14t-26 2q-14 -14 -37 -14h-277q-27 0 -41 18l-172 170 q-16 20 -16 41zM217 322q0 -25 16 -41l46 -43q15 -19 40 -19h21q10 0 12 5.5t-4 13.5l-24 22q-8 8 -8 18t8 17l118 119q8 8 18 8t17 -8l23 -23q8 -7 13 -5t5 11v842q0 25 -18 43l-43 43q-20 16 -41 16h-97q-24 0 -40 -16l-46 -43q-16 -20 -16 -43v-917z" />
<glyph unicode="R" horiz-adv-x="960" d="M0 25v1509q0 10 7 17.5t18 7.5h481q24 0 43 -19l170 -170q18 -18 18 -41v-512q0 -25 -18 -43l-64 -63q-19 -19 -12 -41l113 -645q1 -10 -5.5 -17.5t-15.5 -7.5h-172q-10 0 -18 7t-10 18l-95 538q-2 9 -10 16t-18 7h-170q-9 0 -16.5 -7t-6.5 -16v-538q0 -9 -7.5 -17 t-16.5 -8h-168q-23 0 -27 25zM217 829q0 -10 8 -17t17 -7h176q25 0 41 16l43 43q18 18 18 43v332q0 9 -5.5 22t-12.5 19l-43 43q-18 18 -41 18h-176q-9 0 -17 -7.5t-8 -16.5v-488z" />
<glyph unicode="S" horiz-adv-x="940" d="M0 229v263q0 10 8 17t17 7h168q11 0 17.5 -7t6.5 -17v-173q0 -24 19 -43l43 -43q20 -16 40 -16h97q23 0 43 16l43 43q16 16 16 43v281q0 27 -16 43l-45 43q-13 16 -41 16h-187q-9 0 -22 6t-19 13l-172 170q-16 20 -16 43v395q0 23 18 41l170 170q19 19 41 19h277 q24 0 43 -19l170 -170q16 -20 16 -41v-213q0 -10 -6.5 -17t-17.5 -7h-168q-9 0 -17 7t-8 17v123q0 28 -16 41l-43 45q-20 16 -43 16h-97q-20 0 -40 -16l-43 -45q-7 -6 -13 -19t-6 -22v-217q0 -25 16 -41l46 -43q14 -18 40 -18h187q24 0 41 -17l172 -170q16 -20 16 -43v-461 q0 -25 -16 -41l-170 -172q-20 -16 -43 -16h-277q-21 0 -41 16l-170 172q-7 6 -12.5 19t-5.5 22z" />
<glyph unicode="T" horiz-adv-x="909" d="M0 1378v158q0 9 7.5 16t17.5 7h655q9 0 17 -7t8 -16v-158q0 -9 -8 -16.5t-17 -7.5h-201q-10 0 -17 -7t-7 -18v-1304q0 -11 -7.5 -18t-17.5 -7h-156q-10 0 -17 7t-7 18v1304q0 10 -8 17.5t-17 7.5h-200q-10 0 -17.5 7.5t-7.5 16.5z" />
<glyph unicode="U" horiz-adv-x="937" d="M0 229v1305q0 10 7 17.5t18 7.5h168q9 0 16.5 -7.5t7.5 -17.5v-1215q0 -23 16 -43l43 -43q20 -16 43 -16h95q23 0 43 16l43 43q16 16 16 43v1215q0 10 8 17.5t17 7.5h168q10 0 17 -7t7 -18v-1305q0 -23 -16 -43l-170 -170q-20 -16 -43 -16h-275q-23 0 -43 16l-170 170 q-16 20 -16 43z" />
<glyph unicode="V" horiz-adv-x="1017" d="M0 1536v4q0 6 4 12q6 7 16 7h173q9 0 18 -7t10 -16l180 -934q3 -9 6 -9t5 9l180 934q1 9 10.5 16t18.5 7h172q10 0 16 -7q5 -5 5 -12q0 -2 -1 -4l-293 -1511q-2 -11 -10 -18t-18 -7h-168q-11 0 -19.5 7.5t-9.5 17.5z" />
<glyph unicode="W" horiz-adv-x="1458" d="M-41 1536q-2 9 4.5 16t16.5 7h172q9 0 18 -7t10 -16l164 -918q2 -9 4 -9t4 9l148 918q4 23 6 23h29h163h27q4 0 8 -23l148 -918q1 -9 4 -9t4 9l164 918q2 9 10 16t18 7h170q10 0 16.5 -7t4.5 -16l-268 -1511q-1 -10 -9.5 -17.5t-19.5 -7.5h-189q-10 0 -18 7t-10 18 l-137 849q-1 7 -3 9.5t-3.5 0t-2.5 -9.5l-135 -849q-1 -10 -10 -17.5t-18 -7.5h-189q-11 0 -19.5 7.5t-9.5 17.5z" />
<glyph unicode="X" horiz-adv-x="1052" d="M2 23l295 733q11 25 0 47l-295 735q-2 4 -2 8t2 8q4 7 14 7h187q9 0 19.5 -7t13.5 -16l178 -444q4 -9 9.5 -9t8.5 9l178 444q12 23 35 23h184q10 0 15 -7q3 -4 3 -10q0 -3 -1 -6l-295 -735q-11 -22 0 -47l295 -733q1 -3 1 -6q0 -5 -3 -10q-5 -7 -15 -7h-184q-23 0 -35 23 l-178 442q-3 9 -8.5 9t-9.5 -9l-176 -442q-12 -23 -35 -23h-185q-10 0 -14 7q-3 4 -3 9q0 3 1 7z" />
<glyph unicode="Y" horiz-adv-x="1050" d="M2 1536q-2 4 -2 8t2 8q5 7 14 7h187q9 0 19.5 -7t13.5 -16l178 -440q2 -7 5 -9.5t6.5 0t6.5 9.5l178 440q3 9 13.5 16t19.5 7h186q9 0 14 -7q3 -4 3 -8t-2 -8l-303 -752q-9 -27 -9 -47v-712q0 -10 -7.5 -17.5t-16.5 -7.5h-168q-10 0 -17.5 7t-7.5 18v708q0 27 -10 47z " />
<glyph unicode="Z" horiz-adv-x="983" d="M0 1362v168q0 10 7 17t18 7h729q10 0 17 -7t7 -17v-152q0 -27 -10 -47l-516 -1091q-5 -9 -0.5 -16t14.5 -7h488q10 0 17 -7.5t7 -16.5v-168q0 -11 -7 -18t-17 -7h-725q-11 0 -18 7t-7 18v170q0 27 10 47l506 1073q4 9 0.5 15.5t-12.5 6.5h-483q-10 0 -17.5 8t-7.5 17z " />
<glyph unicode="_" horiz-adv-x="1253" d="M195 -27v-155q0 -12 7.5 -20.5t18.5 -8.5h813q11 0 19 8.5t8 20.5v155q0 11 -8.5 19t-18.5 8h-813q-10 0 -18 -8t-8 -19z" />
<glyph unicode="a" horiz-adv-x="1159" d="M0 25l360 1511q1 9 10.5 16t20.5 7h164h2q9 -1 17 -7q10 -8 12 -16l368 -1511q1 -3 1 -6q0 -5 -4 -11q-6 -8 -15 -8h-178q-24 0 -31 25l-51 215q-2 9 -11.5 16t-19.5 6h-336q-11 0 -20 -6.5t-10 -15.5l-52 -215q-7 -25 -30 -25h-179q-9 0 -14 7.5t-4 17.5zM342 508 q-1 -10 4 -17.5t14 -7.5h232q10 0 16 8q4 5 3 11q0 3 -1 6l-129 530q-3 8 -5 10q-1 1 -2 1q-1 1 -2 -1q-2 -2 -3 -10z" />
<glyph unicode="b" d="M0 25v1511q0 10 7 17.5t18 7.5h483q22 0 41 -19l170 -170q18 -18 18 -41v-387q0 -27 -18 -41l-60 -61q-7 -7 -7.5 -18t5.5 -17l64 -64q16 -20 16 -41v-473q0 -23 -18 -41l-170 -170q-18 -18 -41 -18h-266h-25h-24h-168q-11 0 -18 7t-7 18zM217 242q0 -10 7.5 -17.5 t17.5 -7.5h176q25 0 41 16l45 46q16 16 16 40v293q0 23 -16 43l-41 41q-19 19 -41 19h-180q-10 0 -17.5 -8t-7.5 -17v-448zM217 956q0 -10 7 -17t18 -7h176q28 0 41 16l45 43q16 20 16 43v207q0 25 -16 41l-45 45q-16 16 -41 16h-176q-11 0 -18 -7t-7 -17v-363z" />
<glyph unicode="c" horiz-adv-x="940" d="M0 229v1100q0 25 16 41l172 172q17 17 41 17h277q24 0 41 -17l170 -172q18 -14 18 -41v-213q0 -9 -7 -16.5t-17 -7.5h-168q-9 0 -17 7.5t-8 16.5v123q0 23 -16 43l-45 43q-16 16 -41 16h-97q-24 0 -40 -16l-46 -43q-16 -20 -16 -43v-920q0 -24 16 -40l46 -46 q16 -16 40 -16h97q25 0 41 16l45 46q16 16 16 40v123q0 10 8 17.5t17 7.5h168q10 0 17 -7t7 -18v-213q0 -9 -5.5 -22t-12.5 -19l-170 -172q-16 -16 -41 -16h-277q-25 0 -41 16l-172 172q-16 16 -16 41z" />
<glyph unicode="d" horiz-adv-x="944" d="M0 25q0 -11 7 -18t18 -7h483q9 0 22 5.5t19 12.5l170 170q7 6 12.5 19t5.5 22v1100q0 25 -18 43l-170 170q-14 17 -41 17h-483q-11 0 -18 -7.5t-7 -17.5v-1509zM217 242v1075q0 10 8 17t17 7h176q25 0 41 -16l43 -43q18 -18 18 -43v-920q0 -26 -18 -40l-43 -43 q-6 -7 -19 -13t-22 -6h-176q-9 0 -17 8t-8 17z" />
<glyph unicode="e" horiz-adv-x="831" d="M0 25v1507q0 10 7 17t18 7h577q9 0 17 -7t8 -17v-168q0 -10 -8 -17.5t-17 -7.5h-360q-11 0 -18 -7t-7 -17v-291q0 -10 7.5 -17.5t17.5 -7.5h272q9 0 17 -7.5t8 -16.5v-168q0 -10 -8 -17.5t-17 -7.5h-272q-10 0 -17.5 -7.5t-7.5 -16.5v-516q0 -10 7.5 -17.5t17.5 -7.5h360 q9 0 17 -7t8 -17v-168q0 -10 -8 -17.5t-17 -7.5h-577q-11 0 -18 7t-7 18z" />
<glyph unicode="f" horiz-adv-x="829" d="M0 25v1509q0 10 7 17.5t18 7.5h575q10 0 17.5 -7.5t7.5 -17.5v-168q0 -9 -7.5 -17t-17.5 -8h-358q-11 0 -18 -7t-7 -17v-356q0 -11 7.5 -18t17.5 -7h241q11 0 18 -7t7 -18v-168q0 -9 -7.5 -16.5t-17.5 -7.5h-241q-10 0 -17.5 -7.5t-7.5 -17.5v-669q0 -10 -7.5 -17.5 t-16.5 -7.5h-168q-11 0 -18 7t-7 18z" />
<glyph unicode="g" horiz-adv-x="940" d="M0 229v1100q0 21 16 41l172 170q6 7 19 13t22 6h277q22 0 41 -19l170 -170q18 -18 18 -41v-213q0 -10 -7.5 -17t-16.5 -7h-168q-11 0 -18 7t-7 17v123q0 25 -16 41l-45 43q-6 7 -19 12.5t-22 5.5h-97q-26 0 -40 -18l-46 -43q-16 -16 -16 -41v-920q0 -24 16 -40l46 -46 q16 -16 40 -16h97q25 0 41 16l45 46q16 16 16 40v373q0 11 -7 18t-17 7h-103q-10 0 -17 7.5t-7 16.5v168q0 11 7 18t17 7h320q9 0 16.5 -7.5t7.5 -17.5v-680q0 -9 -5.5 -22t-12.5 -19l-170 -172q-20 -16 -41 -16h-277q-25 0 -41 16l-172 172q-16 16 -16 41z" />
<glyph unicode="h" horiz-adv-x="931" d="M0 25v1509q0 10 7 17.5t18 7.5h168q9 0 16.5 -7.5t7.5 -17.5v-573q0 -11 7.5 -18t17.5 -7h243q11 0 18 7t7 18v573q0 10 8 17.5t17 7.5h167q10 0 17.5 -7.5t7.5 -17.5v-1509q0 -11 -7.5 -18t-17.5 -7h-167q-9 0 -17 7.5t-8 17.5v669q0 10 -7 17.5t-18 7.5h-243 q-10 0 -17.5 -7.5t-7.5 -17.5v-669q0 -10 -7.5 -17.5t-16.5 -7.5h-168q-11 0 -18 7t-7 18z" />
<glyph unicode="i" horiz-adv-x="798" d="M-41 25v168q0 9 7.5 16.5t17.5 7.5h172q10 0 17 7t7 18v1071q0 11 -7 17.5t-17 6.5h-172q-10 0 -17.5 8t-7.5 17v168q0 10 7 17t18 7h616q9 0 17 -7t8 -17v-168q0 -9 -8 -17t-17 -8h-178q-9 0 -17 -7t-8 -17v-1071q0 -10 8 -17.5t17 -7.5h178q9 0 17 -7.5t8 -16.5v-168 q0 -10 -8 -17.5t-17 -7.5h-616q-10 0 -17.5 7t-7.5 18z" />
<glyph unicode="j" horiz-adv-x="958" d="M0 229v211q0 10 7 17.5t18 7.5h168q9 0 16.5 -7.5t7.5 -17.5v-121q0 -23 16 -43l43 -43q20 -16 43 -16h95q23 0 43 16l43 43q16 16 16 43v1219q0 10 8 17.5t17 7.5h168q10 0 17 -7t7 -18v-1309q0 -23 -16 -43l-170 -170q-20 -16 -43 -16h-275q-23 0 -43 16l-170 170 q-16 20 -16 43z" />
<glyph unicode="k" horiz-adv-x="983" d="M0 25v1511q0 9 7.5 17t17.5 8h168q10 0 17 -8t7 -17v-537q0 -11 3.5 -12t8.5 8l299 543q12 23 37 23h199q8 0 12 -7q2 -3 2 -7t-2 -9l-299 -543q-11 -23 -4 -45l303 -927q1 -3 1 -6q1 -5 -3 -10q-6 -7 -16 -7h-178q-10 0 -20 7t-13 16l-217 665q-2 7 -6 9.5t-8 0.5t-7 -8 l-80 -145q-12 -24 -12 -47v-473q0 -11 -7 -18t-17 -7h-168q-11 0 -18 7t-7 18z" />
<glyph unicode="l" horiz-adv-x="843" d="M0 25v1505q0 10 7 17t18 7h168q9 0 16.5 -7t7.5 -17v-1288q0 -10 7.5 -17.5t17.5 -7.5h403q10 0 17.5 -7.5t7.5 -16.5v-168q0 -11 -7 -18t-18 -7h-620q-11 0 -18 7t-7 18z" />
<glyph unicode="m" horiz-adv-x="1064" d="M2 25v1503q0 9 8 16.5t17 7.5h172q25 0 32 -24l181 -641q2 -7 4.5 -9.5t5 0t4.5 9.5l184 641q3 10 12.5 17t18.5 7h174q9 0 17 -7.5t8 -16.5v-1503q0 -10 -8 -17.5t-17 -7.5h-168q-10 0 -17 7t-7 18v737q0 8 -2 9q-2 2 -4 -3q0 -2 -1 -6l-127 -436q-8 -23 -30 -23h-82 q-23 0 -31 23l-121 424q-6 21 -6 0v-725q0 -11 -7 -18t-17 -7h-168q-9 0 -17 7.5t-8 17.5z" />
<glyph unicode="n" horiz-adv-x="933" d="M-4 25v1509q0 11 7 18t17 7h168q10 0 20 -7t13 -16l283 -784q2 -6 4 -8t3 0.5t1 9.5v782q0 9 8 17t17 8h168q10 0 17 -8t7 -17v-1511q0 -11 -7 -18t-17 -7h-136q-24 0 -32 23l-316 878q-8 16 -8 -2v-874q0 -10 -8 -17.5t-17 -7.5h-168q-10 0 -17 7t-7 18z" />
<glyph unicode="o" horiz-adv-x="940" d="M0 229v1098q0 23 16 43l172 170q13 16 41 16h277q28 0 41 -16l172 -170q16 -20 16 -43v-1098q0 -25 -16 -41l-172 -172q-16 -16 -41 -16h-277q-25 0 -41 16l-172 172q-16 16 -16 41zM217 319q0 -24 16 -40l46 -46q16 -16 40 -16h97q23 0 43 16l43 46q18 14 18 40v918 q0 25 -18 43l-43 43q-18 18 -43 18h-97q-26 0 -40 -18l-46 -43q-16 -20 -16 -43v-918z" />
<glyph unicode="p" horiz-adv-x="919" d="M0 25v1509q0 10 7 17.5t18 7.5h481q24 0 41 -17l170 -170q18 -18 18 -43v-510q0 -25 -18 -43l-170 -170q-16 -16 -41 -16h-264q-9 0 -17 -8t-8 -17v-540q0 -11 -7 -18t-17 -7h-166q-23 0 -27 25zM217 831q0 -10 7 -17t18 -7h174q28 0 41 16l45 43q16 20 16 43v330 q0 23 -16 43l-45 43q-16 16 -41 16h-174q-11 0 -18 -7t-7 -17v-486z" />
<glyph unicode="q" horiz-adv-x="978" d="M0 231v1098q0 23 16 43l172 170q17 17 41 17h277q20 0 41 -17l170 -170q18 -18 18 -43v-1098q0 -22 -14 -36q-5 -4 -3 -14t9 -17l70 -70q9 -9 9 -17.5t-9 -17.5l-41 -43q-20 -16 -43 -16h-105q-25 0 -39 14t-26 2q-14 -14 -37 -14h-277q-27 0 -41 18l-172 170 q-16 20 -16 41zM217 322q0 -25 16 -41l46 -43q15 -19 40 -19h21q10 0 12 5.5t-4 13.5l-24 22q-8 8 -8 18t8 17l118 119q8 8 18 8t17 -8l23 -23q8 -7 13 -5t5 11v842q0 25 -18 43l-43 43q-20 16 -41 16h-97q-24 0 -40 -16l-46 -43q-16 -20 -16 -43v-917z" />
<glyph unicode="r" horiz-adv-x="960" d="M0 25v1509q0 10 7 17.5t18 7.5h481q24 0 43 -19l170 -170q18 -18 18 -41v-512q0 -25 -18 -43l-64 -63q-19 -19 -12 -41l113 -645q1 -10 -5.5 -17.5t-15.5 -7.5h-172q-10 0 -18 7t-10 18l-95 538q-2 9 -10 16t-18 7h-170q-9 0 -16.5 -7t-6.5 -16v-538q0 -9 -7.5 -17 t-16.5 -8h-168q-23 0 -27 25zM217 829q0 -10 8 -17t17 -7h176q25 0 41 16l43 43q18 18 18 43v332q0 9 -5.5 22t-12.5 19l-43 43q-18 18 -41 18h-176q-9 0 -17 -7.5t-8 -16.5v-488z" />
<glyph unicode="s" horiz-adv-x="940" d="M0 229v263q0 10 8 17t17 7h168q11 0 17.5 -7t6.5 -17v-173q0 -24 19 -43l43 -43q20 -16 40 -16h97q23 0 43 16l43 43q16 16 16 43v281q0 27 -16 43l-45 43q-13 16 -41 16h-187q-9 0 -22 6t-19 13l-172 170q-16 20 -16 43v395q0 23 18 41l170 170q19 19 41 19h277 q24 0 43 -19l170 -170q16 -20 16 -41v-213q0 -10 -6.5 -17t-17.5 -7h-168q-9 0 -17 7t-8 17v123q0 28 -16 41l-43 45q-20 16 -43 16h-97q-20 0 -40 -16l-43 -45q-7 -6 -13 -19t-6 -22v-217q0 -25 16 -41l46 -43q14 -18 40 -18h187q24 0 41 -17l172 -170q16 -20 16 -43v-461 q0 -25 -16 -41l-170 -172q-20 -16 -43 -16h-277q-21 0 -41 16l-170 172q-7 6 -12.5 19t-5.5 22z" />
<glyph unicode="t" horiz-adv-x="909" d="M0 1378v158q0 9 7.5 16t17.5 7h655q9 0 17 -7t8 -16v-158q0 -9 -8 -16.5t-17 -7.5h-201q-10 0 -17 -7t-7 -18v-1304q0 -11 -7.5 -18t-17.5 -7h-156q-10 0 -17 7t-7 18v1304q0 10 -8 17.5t-17 7.5h-200q-10 0 -17.5 7.5t-7.5 16.5z" />
<glyph unicode="u" horiz-adv-x="937" d="M0 229v1305q0 10 7 17.5t18 7.5h168q9 0 16.5 -7.5t7.5 -17.5v-1215q0 -23 16 -43l43 -43q20 -16 43 -16h95q23 0 43 16l43 43q16 16 16 43v1215q0 10 8 17.5t17 7.5h168q10 0 17 -7t7 -18v-1305q0 -23 -16 -43l-170 -170q-20 -16 -43 -16h-275q-23 0 -43 16l-170 170 q-16 20 -16 43z" />
<glyph unicode="v" horiz-adv-x="997" d="M0 1536v4q0 6 4 12q6 7 16 7h173q9 0 18 -7t10 -16l180 -934q3 -9 6 -9t5 9l180 934q1 9 10.5 16t18.5 7h172q10 0 16 -7q5 -5 5 -12q0 -2 -1 -4l-293 -1511q-2 -11 -10 -18t-18 -7h-168q-11 0 -19.5 7.5t-9.5 17.5z" />
<glyph unicode="w" horiz-adv-x="1458" d="M-41 1536q-2 9 4.5 16t16.5 7h172q9 0 18 -7t10 -16l164 -918q2 -9 4 -9t4 9l148 918q4 23 6 23h29h163h27q4 0 8 -23l148 -918q1 -9 4 -9t4 9l164 918q2 9 10 16t18 7h170q10 0 16.5 -7t4.5 -16l-268 -1511q-1 -10 -9.5 -17.5t-19.5 -7.5h-189q-10 0 -18 7t-10 18 l-137 849q-1 7 -3 9.5t-3.5 0t-2.5 -9.5l-135 -849q-1 -10 -10 -17.5t-18 -7.5h-189q-11 0 -19.5 7.5t-9.5 17.5z" />
<glyph unicode="x" horiz-adv-x="1052" d="M2 23l295 733q11 25 0 47l-295 735q-2 4 -2 8t2 8q4 7 14 7h187q9 0 19.5 -7t13.5 -16l178 -444q4 -9 9.5 -9t8.5 9l178 444q12 23 35 23h184q10 0 15 -7q3 -4 3 -10q0 -3 -1 -6l-295 -735q-11 -22 0 -47l295 -733q1 -3 1 -6q0 -5 -3 -10q-5 -7 -15 -7h-184q-23 0 -35 23 l-178 442q-3 9 -8.5 9t-9.5 -9l-176 -442q-12 -23 -35 -23h-185q-10 0 -14 7q-3 4 -3 9q0 3 1 7z" />
<glyph unicode="y" horiz-adv-x="1030" d="M2 1536q-2 4 -2 8t2 8q5 7 14 7h187q9 0 19.5 -7t13.5 -16l178 -440q2 -7 5 -9.5t6.5 0t6.5 9.5l178 440q3 9 13.5 16t19.5 7h186q9 0 14 -7q3 -4 3 -8t-2 -8l-303 -752q-9 -27 -9 -47v-712q0 -10 -7.5 -17.5t-16.5 -7.5h-168q-10 0 -17.5 7t-7.5 18v708q0 27 -10 47z " />
<glyph unicode="z" horiz-adv-x="983" d="M0 1362v168q0 10 7 17t18 7h729q10 0 17 -7t7 -17v-152q0 -27 -10 -47l-516 -1091q-5 -9 -0.5 -16t14.5 -7h488q10 0 17 -7.5t7 -16.5v-168q0 -11 -7 -18t-17 -7h-725q-11 0 -18 7t-7 18v170q0 27 10 47l506 1073q4 9 0.5 15.5t-12.5 6.5h-483q-10 0 -17.5 8t-7.5 17z " />
<glyph unicode="&#xad;" horiz-adv-x="1212" d="M358 588q0 -10 7 -17.5t18 -7.5h446q11 0 18 7.5t7 17.5v141q0 9 -7.5 17t-17.5 8h-446q-10 0 -17.5 -8t-7.5 -17v-141z" />
<glyph unicode="&#x2000;" horiz-adv-x="803" />
<glyph unicode="&#x2001;" horiz-adv-x="1606" />
<glyph unicode="&#x2002;" horiz-adv-x="803" />
<glyph unicode="&#x2003;" horiz-adv-x="1606" />
<glyph unicode="&#x2004;" horiz-adv-x="535" />
<glyph unicode="&#x2005;" horiz-adv-x="401" />
<glyph unicode="&#x2006;" horiz-adv-x="267" />
<glyph unicode="&#x2007;" horiz-adv-x="267" />
<glyph unicode="&#x2008;" horiz-adv-x="200" />
<glyph unicode="&#x2009;" horiz-adv-x="321" />
<glyph unicode="&#x200a;" horiz-adv-x="89" />
<glyph unicode="&#x2010;" horiz-adv-x="1212" d="M358 588q0 -10 7 -17.5t18 -7.5h446q11 0 18 7.5t7 17.5v141q0 9 -7.5 17t-17.5 8h-446q-10 0 -17.5 -8t-7.5 -17v-141z" />
<glyph unicode="&#x2011;" horiz-adv-x="1212" d="M358 588q0 -10 7 -17.5t18 -7.5h446q11 0 18 7.5t7 17.5v141q0 9 -7.5 17t-17.5 8h-446q-10 0 -17.5 -8t-7.5 -17v-141z" />
<glyph unicode="&#x2012;" horiz-adv-x="1212" d="M358 588q0 -10 7 -17.5t18 -7.5h446q11 0 18 7.5t7 17.5v141q0 9 -7.5 17t-17.5 8h-446q-10 0 -17.5 -8t-7.5 -17v-141z" />
<glyph unicode="&#x2013;" horiz-adv-x="1740" d="M358 588q0 -10 14.5 -17.5t37.5 -7.5h920q23 0 37.5 7.5t14.5 17.5v141q0 9 -15.5 17t-36.5 8h-920q-21 0 -36.5 -8t-15.5 -17v-141z" />
<glyph unicode="&#x2014;" horiz-adv-x="2764" d="M358 588q0 -10 29 -17.5t74 -7.5h1842q45 0 74 7.5t29 17.5v141q0 9 -31 17t-72 8h-1842q-41 0 -72 -8t-31 -17v-141z" />
<glyph unicode="&#x202f;" horiz-adv-x="321" />
<glyph unicode="&#x205f;" horiz-adv-x="401" />
<glyph unicode="&#xe000;" horiz-adv-x="1556" d="M0 0v1556h1556v-1556h-1556z" />
</font>
</defs>
</svg>
