<?xml version="1.0" standalone="no"?>
<!DOCTYPE svg PUBLIC "-//W3C//DTD SVG 1.1//EN" "http://www.w3.org/Graphics/SVG/1.1/DTD/svg11.dtd" >
<svg xmlns="http://www.w3.org/2000/svg">
<metadata></metadata>
<defs>
<font id="fugaz_oneregular" horiz-adv-x="602" >
<font-face units-per-em="1000" ascent="800" descent="-200" />
<missing-glyph horiz-adv-x="240" />
<glyph unicode="&#xd;" horiz-adv-x="333" />
<glyph unicode=" "  horiz-adv-x="240" />
<glyph unicode="&#x09;" horiz-adv-x="240" />
<glyph unicode="&#xa0;" horiz-adv-x="240" />
<glyph unicode="!" horiz-adv-x="294" d="M205 262h-133l72 529h170zM11 58q0 64 28 93.5t89 29.5q84 0 84 -74q0 -63 -28.5 -92t-89.5 -29q-83 0 -83 72z" />
<glyph unicode="&#x22;" horiz-adv-x="393" d="M204 584h-102l37 236h113zM392 584h-102l37 236h113z" />
<glyph unicode="#" horiz-adv-x="646" d="M507 107h-78l-22 -58h-120l22 58h-102l-22 -58h-120l22 58h-88l37 90h87l48 124h-77l37 90h75l32 81h119l-31 -81h102l32 81h119l-31 -81h91l-37 -90h-89l-49 -124h80zM345 197l48 124h-102l-49 -124h103z" />
<glyph unicode="$" horiz-adv-x="630" d="M201 204q0 -68 99.5 -68t99.5 62q0 33 -34 54t-82.5 35t-97.5 32.5t-83 58t-34 98.5q0 105 63.5 169.5t196.5 78.5l21 121h150l-22 -125q76 -14 115 -56.5t39 -105.5q0 -29 -8 -55t-16 -37l-8 -12h-177q22 23 22 58q0 65 -85 65q-49 0 -77.5 -17t-28.5 -51t34 -54 t82.5 -31.5t97.5 -28.5t83 -56.5t34 -102.5q0 -106 -56.5 -167.5t-178.5 -77.5l-24 -135h-150l23 133q-110 11 -153 67q-30 38 -30 101q0 28 6 62l3 16h180l-2 -12q-2 -10 -2 -19z" />
<glyph unicode="%" horiz-adv-x="835" d="M256 727q127 0 127 -109q0 -18 -4 -40l-12 -70q-27 -152 -177 -152q-128 0 -128 109q0 20 4 43l12 70q25 149 178 149zM168 482q0 -38 38 -38q22 0 35.5 14t20.5 52l12 66q2 12 2 22q0 41 -36 41q-46 0 -57 -63l-12 -66q-3 -16 -3 -28zM101 0l521 727h140l-521 -727h-140 zM668 355q128 0 128 -107q0 -19 -4 -42l-13 -70q-14 -77 -56.5 -114.5t-119.5 -37.5q-129 0 -129 109q0 19 4 43l13 70q27 149 177 149zM582 111q0 -39 36 -39q22 0 36.5 14t20.5 52l11 66q2 12 2 22q0 41 -36 41q-46 0 -57 -63l-11 -66q-2 -15 -2 -27z" />
<glyph unicode="&#x26;" horiz-adv-x="667" d="M264 -14q-242 0 -242 168q0 82 45.5 134.5t111.5 52.5v3q-45 0 -71 41t-26 94q0 109 84 178.5t234 69.5q116 0 175.5 -43.5t59.5 -120.5q0 -28 -7.5 -53t-15.5 -36l-8 -10h-177q21 21 21 58q0 50 -77 50q-48 0 -79 -25.5t-31 -63.5t24 -61t66 -24h307l-20 -109h-44 l-11 -61q-22 -122 -105.5 -182t-213.5 -60zM210 207q0 -29 21 -47.5t56 -18.5q111 0 126 87l11 61h-114q-100 0 -100 -82z" />
<glyph unicode="'" horiz-adv-x="205" d="M204 584h-102l37 236h113z" />
<glyph unicode="(" horiz-adv-x="352" d="M37.5 -111q-20.5 96 -20.5 208t26.5 226t64.5 191t76 136.5t64 87.5l27 28l134 -62q-31 -31 -73.5 -95.5t-72 -129.5t-53.5 -167.5t-24 -201.5t15 -178.5t31 -113.5l15 -35l-156 -62q-8 15 -20.5 43.5t-33 124.5z" />
<glyph unicode=")" horiz-adv-x="352" d="M124 173q24 102 24 184.5t-6.5 137t-15.5 90.5q-17 76 -32 106l-7 13l156 62q8 -15 20.5 -44t33 -125t20.5 -209t-26.5 -227t-64.5 -190q-80 -159 -140 -223l-27 -27l-134 62q9 9 24 25.5t53.5 74.5t68 123t53.5 167z" />
<glyph unicode="*" horiz-adv-x="438" d="M360 506l-79 -32l-20 127l-92 -107l-58 48l115 102l-135 8l22 82l128 -34l-36 123l80 33l17 -134l96 114l57 -48l-112 -102l132 -9l-23 -81l-129 31z" />
<glyph unicode="+" horiz-adv-x="446" d="M122 62l23 129h-126l21 118h126l22 124h118l-22 -124h127l-21 -118h-127l-23 -129h-118z" />
<glyph unicode="," horiz-adv-x="295" d="M5 58q0 64 28.5 93.5t89.5 29.5q90 0 90 -89q0 -294 -278 -294l13 72q53 0 105 50q29 28 35 66q-83 0 -83 72z" />
<glyph unicode="-" horiz-adv-x="412" d="M340 209h-299l22 126h299z" />
<glyph unicode="." horiz-adv-x="284" d="M5 58q0 64 28 93.5t89 29.5q84 0 84 -74q0 -63 -28.5 -92t-89.5 -29q-83 0 -83 72z" />
<glyph unicode="/" horiz-adv-x="568" d="M132 -277h-209l496 1037h208z" />
<glyph unicode="0" horiz-adv-x="661" d="M407 727q236 0 236 -212q0 -39 -8 -86l-24 -140q-26 -153 -107.5 -228t-226 -75t-199.5 74q-37 51 -37 138q0 42 8 91l24 140q52 298 334 298zM223 229q0 -88 81 -88q50 0 81.5 33t46.5 119l23 132q6 33 6 57q0 90 -80 90q-102 -2 -128 -147l-24 -132q-6 -37 -6 -64z" />
<glyph unicode="1" horiz-adv-x="506" d="M384 0h-181l85 480q-24 -39 -88 -75t-134 -36l-13 168q94 0 176 57.5t101 125.5h180z" />
<glyph unicode="2" horiz-adv-x="636" d="M249 442q0 -29 7 -43h-177q-6 24 -6 62q0 121 81.5 193.5t233.5 72.5q243 0 243 -196q0 -70 -34 -130.5t-83 -99t-98 -67t-85 -48t-39 -29.5v-1h267l-28 -156h-523l13 74q11 63 48 112.5t84 77.5t99.5 55.5t95.5 49t71.5 55.5t28.5 76q0 72 -81 72q-56 0 -87 -35.5 t-31 -94.5z" />
<glyph unicode="3" horiz-adv-x="635" d="M259 474q0 -15 5 -30h-177q-5 18 -5 47q0 109 79 172.5t227 63.5q118 0 179 -49.5t61 -136.5q0 -71 -47 -134t-108 -63v-3q47 0 75 -33t28 -86q0 -236 -314 -236q-131 0 -193 60q-46 44 -46 122q0 28 6 60h180q-2 -11 -2 -21q0 -66 86 -66q45 0 75 26t30 64q0 58 -76 58 h-101l20 109h80q52 1 87.5 32.5t35.5 68.5t-22.5 55t-66.5 18t-70 -26.5t-26 -71.5z" />
<glyph unicode="4" horiz-adv-x="622" d="M447 0h-178l22 127h-284l41 231l283 342h190l-289 -371l-10 -58h107l25 137h165l-25 -137h99l-25 -144h-99z" />
<glyph unicode="5" horiz-adv-x="634" d="M214 199q0 -26 20.5 -42t66.5 -16t77.5 29.5t31.5 73.5t-22.5 69.5t-55.5 25.5q-59 0 -91 -26l-11 -9h-171l73 416h489l-28 -157h-319l-17 -99q44 23 132.5 23t146 -55t57.5 -149q0 -132 -80 -214.5t-232 -82.5t-209 56q-42 41 -42 115q0 26 5 56h180q-1 -7 -1 -14z" />
<glyph unicode="6" horiz-adv-x="646" d="M419 422q87 0 130.5 -45.5t43.5 -119.5q0 -128 -78 -199.5t-232 -71.5t-209 62q-38 44 -38 123q0 34 7 73l41 230q45 253 320 253q117 0 177 -41.5t60 -115.5q0 -29 -8.5 -55.5t-17.5 -38.5l-9 -12h-177q24 25 24 62q0 46 -77 46q-95 0 -115 -112l-7 -38h165zM334 287 h-103l-5 -29q-4 -25 -4 -50q0 -67 78 -67q109 0 109 84q0 62 -75 62z" />
<glyph unicode="7" horiz-adv-x="570" d="M243 0h-180q16 88 52.5 170t78.5 140t82.5 105.5t69.5 86t33 62.5h-307l28 156h523l-13 -74q-19 -111 -132 -239q-46 -53 -93 -109.5t-87 -133.5t-55 -164z" />
<glyph unicode="8" horiz-adv-x="625" d="M17 158q0 49 14.5 90t31 62.5t41.5 39.5t32.5 21t18.5 7q-21 7 -41 38q-18 30 -18 81q0 106 79.5 167.5t203.5 61.5t181 -41t57 -115q0 -38 -13 -70t-32 -50q-39 -40 -68 -51l-13 -5q80 -47 80 -154q0 -132 -80.5 -193t-236.5 -61q-108 0 -172.5 42.5t-64.5 129.5z M199 207q0 -66 83 -66q54 0 84.5 23.5t30.5 65.5t-48 54l-66 15q-3 -1 -9 -2.5t-20.5 -8.5t-25.5 -16q-29 -26 -29 -65zM419 518q0 22 -15.5 38t-49 16t-56.5 -21.5t-23 -44t7 -34.5q10 -20 23 -23l58 -14q6 0 17.5 6t19 13.5t13.5 24.5t6 39z" />
<glyph unicode="9" horiz-adv-x="646" d="M248 291q-86 0 -129.5 45.5t-43.5 119.5q0 128 78 199.5t232 71.5t209 -63q38 -43 38 -122q0 -34 -7 -73l-41 -230q-45 -253 -320 -253q-117 0 -177 41.5t-60 115.5q0 27 7.5 53.5t15.5 39.5l7 13h177q-18 -25 -18 -54q0 -54 76 -54q95 0 115 112l7 38h-166zM334 426h103 l5 29q4 25 4 50q0 67 -78 67q-109 0 -109 -84q0 -62 75 -62z" />
<glyph unicode=":" horiz-adv-x="311" d="M18 58q0 64 28 93.5t89 29.5q84 0 84 -74q0 -63 -28.5 -92t-89.5 -29q-83 0 -83 72zM73 373q0 64 28.5 93.5t79.5 29.5t72 -17.5t21 -56.5q0 -63 -28.5 -92t-89.5 -29q-83 0 -83 72z" />
<glyph unicode=";" horiz-adv-x="319" d="M74 373q0 64 28.5 93.5t88.5 29.5q84 0 84 -74q0 -63 -29 -92t-89 -29q-83 0 -83 72zM18 58q0 64 28.5 93.5t89.5 29.5q90 0 90 -89q0 -294 -278 -294l13 72q53 0 105 50q29 28 35 66q-83 0 -83 72z" />
<glyph unicode="&#x3c;" horiz-adv-x="422" d="M321 7l-310 209l18 103l384 210l-24 -140l-221 -122l178 -120z" />
<glyph unicode="=" horiz-adv-x="489" d="M432 306h-371l21 118h371zM395 95h-371l21 118h371z" />
<glyph unicode="&#x3e;" horiz-adv-x="422" d="M383 216l-384 -209l25 140l220 120l-178 122l25 140l310 -210z" />
<glyph unicode="?" horiz-adv-x="592" d="M246 494q0 -23 7 -42h-177q-6 24 -6 62q0 116 81 183.5t232 67.5q119 0 176.5 -44.5t57.5 -122.5q0 -55 -26.5 -102t-65.5 -78t-78 -57t-69 -51t-34 -48l-12 -65h-168l11 65q9 49 37 83.5t61.5 53t66.5 36.5q76 42 76 121q0 54 -70 54q-48 0 -74 -31.5t-26 -84.5zM119 33 q0 64 28.5 93.5t88.5 29.5q84 0 84 -74q0 -63 -28.5 -92t-89.5 -29q-83 0 -83 72z" />
<glyph unicode="@" horiz-adv-x="982" d="M512.5 638q-21.5 -1 -61.5 -4.5t-67.5 -14t-57.5 -27.5q-59 -34 -74 -113l-50 -282q-2 -13 -2 -32.5t14 -46.5t43 -44t71 -28q65 -16 144 -16t151 12t104 24l32 13l26 -145q-66 -21 -172.5 -40t-175.5 -19q-240 0 -339 85q-76 65 -76 180q0 35 7 74l47 265 q25 141 154.5 228t369.5 87q115 0 197.5 -24t125.5 -68q68 -68 68 -163q0 -25 -5 -52l-16 -95q-23 -133 -113 -202t-213 -69q-92 0 -104 69q-14 -25 -46 -47t-82 -22q-79 0 -112 43q-24 29 -24 78q0 20 4 44l17 99q14 77 63.5 122.5t128 45.5t105.5 -37l5 26h147l-40 -229 q-2 -10 -2 -17q0 -27 23 -27q47 0 63 81l27 139q3 16 3 35t-11 44t-32.5 39.5t-62.5 22.5q-52 9 -87 9h-64.5t-50 -1zM480 262q39 0 59 27l18 102q-7 22 -51 22q-18 0 -31 -12t-17 -32l-12 -65q-1 -5 -1 -14t9 -18.5t26 -9.5z" />
<glyph unicode="A" horiz-adv-x="641" d="M375 0l6 157h-167l-49 -157h-191l257 720h330l4 -720h-190zM334 545l-79 -254h131l11 254h-63z" />
<glyph unicode="B" horiz-adv-x="657" d="M436 720q114 0 162 -50q36 -38 36 -96q0 -20 -4 -42l-9 -48q-11 -57 -42.5 -89t-55.5 -32l-1 -8q28 0 57 -31t29 -73q0 -17 -4 -36l-6 -31q-16 -86 -76.5 -135t-168.5 -49h-334l127 720h290zM346 294h-95l-24 -138h95h4q46 0 73 21.5t27 52.5q0 64 -80 64zM373 564h-75 l-26 -149h74q96 0 96 84q0 29 -17.5 47t-51.5 18z" />
<glyph unicode="C" horiz-adv-x="647" d="M272 -14q-143 0 -198 62q-38 44 -38 123q0 34 7 73l41 230q45 253 325 253q116 0 176 -49.5t60 -135.5q0 -40 -11.5 -79.5t-22.5 -58.5l-11 -20h-177q33 38 33 108q0 37 -19 58.5t-56 21.5q-101 0 -120 -112l-35 -202q-5 -26 -5 -51q0 -66 79 -66q95 0 114 107h180 l-5 -29q-40 -233 -317 -233z" />
<glyph unicode="D" horiz-adv-x="669" d="M426 720q131 0 187 -66q41 -50 41 -125q0 -27 -5 -57l-39 -223q-20 -113 -98 -181t-202 -68h-291l127 720h280zM363 564h-65l-71 -408h95q47 0 73.5 25.5t36.5 83.5l29 164q4 22 4 40q0 95 -102 95z" />
<glyph unicode="E" horiz-adv-x="617" d="M521 0h-502l127 720h502l-28 -156h-322l-23 -135h266l-28 -156h-266l-20 -117h322z" />
<glyph unicode="F" d="M512 264h-266l-46 -264h-181l127 720h502l-28 -156h-322l-25 -144h266z" />
<glyph unicode="G" horiz-adv-x="649" d="M270 -14q-142 0 -196 66q-37 46 -37 126q0 37 8 81l35 200q47 268 328 268q116 0 176 -49.5t60 -135.5q0 -35 -9.5 -71t-18.5 -54l-10 -18h-177q26 36 26 83q0 90 -75 90q-101 0 -121 -117l-34 -192q-5 -27 -5 -53q0 -69 81.5 -69t104.5 82h-82l20 111h265l-16 -86 l-5 -29q-42 -233 -318 -233z" />
<glyph unicode="H" horiz-adv-x="697" d="M701 720l-126 -720h-181l46 260h-195l-45 -260h-181l127 720h180l-54 -304h195l54 304h180z" />
<glyph unicode="I" horiz-adv-x="322" d="M326 720l-126 -720h-181l127 720h180z" />
<glyph unicode="J" horiz-adv-x="632" d="M239 -14q-241 0 -241 175q0 27 6 58l13 74h180l-6 -33q-4 -25 -4 -51t13 -43q20 -25 66 -25t74.5 25t40.5 92l82 463h179l-84 -477q-23 -133 -100 -195.5t-219 -62.5z" />
<glyph unicode="K" horiz-adv-x="656" d="M717 720l-229 -363l102 -357h-190l-75 264h-79l-47 -264h-180l127 720h180l-53 -300h64l190 300h190z" />
<glyph unicode="L" horiz-adv-x="536" d="M475 0h-456l127 720h180l-99 -564h276z" />
<glyph unicode="M" horiz-adv-x="856" d="M334 720l107 -345l230 345h189l-127 -720h-181l72 406l-154 -242h-131l-68 242l-72 -406h-180l127 720h188z" />
<glyph unicode="N" horiz-adv-x="697" d="M701 720l-126 -720h-181l-126 394l-68 -394h-181l127 720h186l124 -368l65 368h180z" />
<glyph unicode="O" horiz-adv-x="664" d="M408 727q241 0 241 -197q0 -33 -7 -71l-35 -200q-24 -139 -104 -206t-225 -67t-202 67q-39 46 -39 127q0 36 8 79l35 200q47 268 328 268zM305 141q50 0 80 26t42 96l34 192q3 20 3 36q0 81 -82 81q-103 -2 -123 -117l-34 -192q-4 -25 -4 -52q0 -70 84 -70z" />
<glyph unicode="P" horiz-adv-x="638" d="M357 219h-119l-39 -219h-180l127 720h305q113 0 161 -52q35 -40 35 -102q0 -21 -4 -44l-20 -113q-15 -83 -88 -136.5t-178 -53.5zM388 564h-90l-33 -189h89q82 0 95 73l7 41q2 9 2 24t-15 33t-55 18z" />
<glyph unicode="Q" horiz-adv-x="667" d="M409 727q242 0 242 -188q0 -30 -6 -65l-41 -230q-20 -116 -82.5 -178.5t-174.5 -75.5q11 -36 53.5 -57.5t110.5 -21.5l-5 -142q-76 0 -133.5 17t-89 41.5t-51.5 57.5q-30 51 -32 107q-165 25 -165 181q0 33 7 71l41 230q45 253 326 253zM305 141q50 0 80 25t42 92l36 202 q3 19 3 34q0 78 -84 78q-103 -2 -122 -112l-35 -202q-4 -24 -4 -50q0 -67 84 -67z" />
<glyph unicode="R" horiz-adv-x="656" d="M436 720q114 0 162 -50q36 -38 36 -96q0 -20 -4 -42l-14 -78q-12 -65 -41.5 -105t-65.5 -57l91 -292h-202l-84 269h-62l-41 -269h-192l127 720h290zM373 564h-75l-26 -174h70q53 0 76 25.5t23 67.5q0 81 -68 81z" />
<glyph unicode="S" horiz-adv-x="648" d="M210 205q0 -69 99.5 -69t99.5 62q0 33 -34 54t-82.5 35t-97 32.5t-82.5 58t-34 98.5q0 251 323 251q118 0 178.5 -44.5t60.5 -123.5q0 -29 -7.5 -55.5t-15.5 -37.5l-8 -12h-177q22 23 22 58q0 65 -85 65q-107 0 -107 -68q0 -34 34 -54t82.5 -31.5t97.5 -28.5t83 -56.5 t34 -102.5q0 -127 -76 -188.5t-234 -61.5t-216 56q-43 42 -43 116q0 28 6 61l3 16h180l-2 -12q-2 -10 -2 -18z" />
<glyph unicode="T" horiz-adv-x="696" d="M732 564h-246l-99 -564h-181l99 564h-247l28 156h674z" />
<glyph unicode="U" horiz-adv-x="691" d="M291 -14q-145 0 -201 67q-40 46 -40 127q0 36 8 79l81 461h180l-81 -457q-4 -25 -4 -52q0 -70 84 -70q50 0 80 26t42 96l81 457h180l-81 -461q-25 -140 -104.5 -206.5t-224.5 -66.5z" />
<glyph unicode="V" horiz-adv-x="648" d="M315 175l190 545h195l-273 -720h-320l-8 720h196l-3 -545h23z" />
<glyph unicode="W" horiz-adv-x="1000" d="M672 720l-17 -545h23l174 545h196l-247 -720h-300l27 461l-134 -461h-300l7 720h196l-18 -545h23l175 545h195z" />
<glyph unicode="X" horiz-adv-x="688" d="M756 720l-282 -363l155 -357h-205l-98 230l-165 -230h-205l265 357l-138 363h205l83 -234l180 234h205z" />
<glyph unicode="Y" horiz-adv-x="644" d="M367 467l169 253h180l-308 -443l-49 -277h-181l49 277l-152 443h191l78 -253h23z" />
<glyph unicode="Z" horiz-adv-x="618" d="M520 0h-527l28 156h1l387 408h-317l28 156h528l-28 -156l-387 -408h315z" />
<glyph unicode="[" horiz-adv-x="431" d="M297 -278h-333l183 1037h333l-28 -156h-164l-127 -725h164z" />
<glyph unicode="\" horiz-adv-x="564" d="M441 -277h-209l-129 1037h208z" />
<glyph unicode="]" horiz-adv-x="431" d="M265 -278h-333l28 156h164l127 725h-164l28 156h333z" />
<glyph unicode="^" horiz-adv-x="523" d="M293 568h-143l163 239h181l79 -239h-143l-48 118z" />
<glyph unicode="_" horiz-adv-x="664" d="M453 -422h-494l22 126h494z" />
<glyph unicode="`" horiz-adv-x="402" d="M452 568h-148l-112 239h180z" />
<glyph unicode="a" d="M491 154q0 -26 26.5 -26t44.5 10l-5 -113q-48 -39 -108 -39q-110 0 -122 80q-50 -80 -147 -80q-164 0 -164 141q0 24 5 53l21 117q16 90 73.5 143.5t150 53.5t125.5 -43l5 30h152l-56 -315q-1 -6 -1 -12zM195 202q-2 -9 -2 -25t15 -31.5t50.5 -15.5t61.5 28l30 168 q-11 25 -52 25q-77 0 -90 -74z" />
<glyph unicode="b" horiz-adv-x="570" d="M365 495q99 0 139 -55q30 -39 30 -95q0 -23 -5 -48l-20 -112q-17 -96 -88.5 -147.5t-180 -51.5t-166.5 43q-46 34 -46 95q0 16 3 33l106 602h170l-51 -291q42 27 109 27zM356 282q1 8 1 22.5t-12.5 31t-54 16.5t-59.5 -25l-29 -167q12 -30 50 -30q77 0 91 77z" />
<glyph unicode="c" horiz-adv-x="550" d="M224 -14q-208 0 -208 144q0 20 4 43l21 124q16 96 87.5 147t181.5 52q213 0 213 -148q0 -32 -7.5 -57.5t-15.5 -34.5l-8 -10h-170q25 22 25 52q0 54 -54 54q-32 0 -55 -19t-30 -58l-13 -73q-2 -10 -2 -19q0 -53 66 -53q22 0 39.5 14t20.5 31l166 -2q-33 -187 -261 -187z " />
<glyph unicode="d" horiz-adv-x="621" d="M491 154q0 -26 26.5 -26t44.5 10l-5 -113q-48 -39 -108 -39q-110 0 -122 80q-50 -80 -147 -80q-164 0 -164 141q0 24 5 53l21 117q16 90 73.5 143.5t159.5 53.5q63 0 100 -27l51 292h171l-105 -593q-1 -6 -1 -12zM195 202q-2 -9 -2 -25t15 -31.5t50.5 -15.5t61.5 28 l30 168q-11 25 -52 25q-77 0 -90 -74z" />
<glyph unicode="e" horiz-adv-x="552" d="M224 -14q-208 0 -208 144q0 20 4 43l21 124q17 96 88.5 147.5t189.5 51.5q201 0 201 -152q0 -22 -4 -48l-12 -71h-305l-4 -23q-2 -12 -2 -22q0 -55 65 -55q24 0 41 15t20 35l166 -2q-33 -187 -261 -187zM344 286q4 17 4 31.5t-13 29.5t-41.5 15t-52 -19t-32.5 -57h135z " />
<glyph unicode="f" horiz-adv-x="519" d="M456 -18q0 -146 -74.5 -239.5t-202 -93.5t-169.5 63q-26 40 -26 97.5t10 114.5l128 724h170l-30 -167h249l-25 -141h-196q71 -57 118.5 -148t47.5 -210zM258 -158q22 50 22 131.5t-16.5 164.5t-39.5 130l-60 -343q-6 -35 -6 -61q0 -72 47 -72q31 0 53 50z" />
<glyph unicode="g" horiz-adv-x="557" d="M361.5 -217q-78.5 -74 -179.5 -74t-145.5 37t-44.5 97q0 88 112 153q-85 27 -85 129q0 25 5 55l20 117q16 90 74 143.5t150.5 53.5t126.5 -45l6 32h149l-88 -497q-22 -127 -100.5 -201zM198 202q-2 -9 -2 -25t15 -31.5t50.5 -15.5t61.5 28l30 168q-14 25 -53 25t-61 -20 t-28 -54zM205 -148q65 0 85 118l10 58q-139 -65 -139 -131q0 -20 11.5 -32.5t32.5 -12.5z" />
<glyph unicode="h" horiz-adv-x="619" d="M541 128q23 0 41 10l-5 -113q-47 -39 -107 -39q-136 0 -136 114q0 20 4 43l22 123q3 18 3 36q0 48 -50.5 48t-78.5 -34l-56 -316h-170l134 759h170l-57 -323q55 59 138 59q101 0 131 -45q21 -30 21 -67t-6 -68l-27 -149q-1 -6 -1 -11q0 -27 30 -27z" />
<glyph unicode="i" horiz-adv-x="313" d="M233 128q23 0 41 10l-5 -113q-47 -39 -107 -39q-91 0 -118 42q-18 28 -18 59.5t4 55.5l60 338h170l-56 -315q-1 -6 -1 -11q0 -27 30 -27zM110 644q0 64 28.5 93.5t88.5 29.5q84 0 84 -74q0 -63 -28.5 -92t-89.5 -29q-83 0 -83 72z" />
<glyph unicode="j" horiz-adv-x="270" d="M-33 -287q-27 0 -50.5 9.5t-33.5 19.5l-10 10l35 113q12 -10 38 -10q35 0 42 38l104 588h170l-108 -611q-13 -72 -55.5 -114.5t-131.5 -42.5zM110 644q0 64 28.5 93.5t88.5 29.5q84 0 84 -74q0 -63 -29 -92t-89 -29q-83 0 -83 72z" />
<glyph unicode="k" d="M501 128q23 0 41 10l-5 -113q-47 -39 -115 -39t-100.5 36t-50.5 121l-3 14q-21 -3 -63 -5l-27 -152h-170l134 759h170l-58 -329q59 65 160 65q68 0 100.5 -33.5t32.5 -89.5q0 -108 -113 -169l11 -37q11 -38 56 -38zM328 359q-54 0 -96 -51l-11 -66q148 6 148 79 q0 17 -10.5 27.5t-30.5 10.5z" />
<glyph unicode="l" horiz-adv-x="319" d="M208 154q0 -26 26.5 -26t44.5 10l-5 -113q-48 -39 -108 -39q-91 0 -118 42q-17 27 -17 59t4 56l109 616h170l-105 -593q-1 -6 -1 -12z" />
<glyph unicode="m" horiz-adv-x="928" d="M850 128q23 0 41 10l-5 -113q-47 -39 -107 -39q-136 0 -136 114q0 20 4 43l21 123q3 18 3 36q0 48 -52.5 48t-82.5 -41l-54 -309h-170l47 266q3 18 3 36q0 48 -54 48q-43 0 -74 -33l-56 -317h-170l85 481h158l-11 -60q60 74 152 74q130 0 148 -86q60 86 160.5 86 t130.5 -45q20 -31 20 -68t-5 -67l-25 -149q-1 -6 -1 -11q0 -27 30 -27z" />
<glyph unicode="n" horiz-adv-x="598" d="M344 307q0 43 -41.5 43t-68.5 -31l-56 -319h-170l85 481h158l-11 -59q59 73 149 73t117 -44q17 -28 17 -64t-5 -67l-27 -154q-1 -6 -1 -11q0 -27 30 -27q23 0 41 10l-5 -113q-47 -39 -107 -39q-136 0 -136 114q0 20 4 43l24 133q3 18 3 31z" />
<glyph unicode="o" horiz-adv-x="564" d="M321 495q108 0 163 -47q43 -37 43 -103q0 -22 -5 -48l-21 -117q-19 -106 -88.5 -150t-185.5 -44t-170 44q-40 33 -40 99q0 23 5 51l21 117q35 198 278 198zM348 277q2 10 2 25.5t-13 34.5t-45.5 19t-54.5 -21.5t-28 -57.5l-13 -75q-2 -10 -2 -25.5t13 -33.5t45.5 -18 t54.5 22.5t28 54.5z" />
<glyph unicode="p" horiz-adv-x="576" d="M369 494q102 0 141 -54q28 -37 28 -94q0 -23 -5 -49l-20 -117q-17 -95 -73 -144.5t-140 -49.5t-117 45l-54 -309h-170l134 759h154l-5 -27q47 40 127 40zM265 130q28 0 52 18t30 54l13 75q2 10 2 25t-13 32t-45 17q-52 0 -68 -25l-30 -168q14 -28 59 -28z" />
<glyph unicode="q" horiz-adv-x="555" d="M175 -14q-93 0 -132 50q-27 35 -27 91q0 24 5 53l21 117q16 90 73.5 143.5t150 53.5t125.5 -43l5 30h151l-134 -759h-170l55 309q-51 -45 -123 -45zM195 202q-2 -9 -2 -25t15 -31.5t50.5 -15.5t61.5 28l30 168q-11 25 -52 25q-77 0 -90 -74z" />
<glyph unicode="r" horiz-adv-x="514" d="M507 379q0 -34 -11.5 -66t-22.5 -47l-11 -14h-151q25 23 25 57q0 18 -11.5 29.5t-31.5 11.5q-34 0 -59 -34l-56 -316h-170l85 481h158l-12 -67q57 81 138 81q65 0 97.5 -31t32.5 -85z" />
<glyph unicode="s" horiz-adv-x="549" d="M522 377q0 -33 -20 -61h-164q8 6 8 20t-16 22.5t-41 8.5q-75 0 -75 -46q0 -18 28 -26t68 -13t80 -14.5t68 -37.5t28 -75q0 -83 -66.5 -126t-193.5 -43t-178 41q-40 32 -40 88q0 16 3 33l167 2q-2 -14 16.5 -24.5t54.5 -10.5t52 7.5t16 28.5q0 14 -28 19.5t-68.5 9.5 t-81 13t-68.5 38t-28 76q0 91 70.5 140t203.5 49q205 0 205 -119z" />
<glyph unicode="t" horiz-adv-x="549" d="M236 -14q-116 0 -167 52q-38 38 -38 102q0 21 4 45l68 387l183 76l-29 -167h276l-25 -141h-276l-20 -113q-4 -19 -4 -34q0 -63 60 -63q32 0 53.5 27t29.5 72h166q-42 -243 -281 -243z" />
<glyph unicode="u" horiz-adv-x="615" d="M504 154q0 -26 26.5 -26t44.5 10l-5 -113q-48 -39 -108 -39q-113 0 -123 87q-60 -87 -161.5 -87t-131.5 46q-20 29 -20 66t6 68l56 315h170l-47 -266q-3 -18 -3 -36q0 -48 54 -48q45 0 72 31l57 319h170l-56 -315q-1 -6 -1 -12z" />
<glyph unicode="v" horiz-adv-x="577" d="M529 481q14 -42 14 -111.5t-17 -133.5t-51.5 -121.5t-96 -93t-141.5 -35.5q-125 0 -173 51q-32 34 -32 104q0 33 8 75l47 265h170l-47 -266q-3 -15 -3 -27q0 -57 59 -57q104 0 104 218q0 51 -8 113l-3 19h170z" />
<glyph unicode="w" horiz-adv-x="888" d="M839 481q14 -42 14 -111.5t-17 -133.5t-51.5 -121.5t-96 -93t-141.5 -35.5q-120 0 -160 67q-72 -67 -161 -67q-120 0 -165 51q-30 34 -30 101q0 35 8 78l47 265h170l-47 -266q-3 -15 -3 -27q0 -57 59 -57q41 0 62 35.5t36 124.5l34 190h170l-47 -266q-3 -15 -3 -27 q0 -57 59 -57q104 0 104 218q0 51 -8 113l-3 19h170z" />
<glyph unicode="x" horiz-adv-x="584" d="M522 0h-186l-71 139l-120 -139h-186l216 246l-130 242h189l68 -137l117 137h189l-217 -243z" />
<glyph unicode="y" horiz-adv-x="570" d="M213 215q-3 -18 -3 -36q0 -48 54 -48q44 0 73 31l56 319h170l-88 -497q-22 -127 -100.5 -201t-179.5 -74t-145.5 37t-44.5 97q0 85 105 151q-57 14 -72 57q-9 24 -9 54t5 61l56 315h170zM218 -148q65 0 85 118l10 58q-139 -65 -139 -131q0 -20 11.5 -32.5t32.5 -12.5z " />
<glyph unicode="z" horiz-adv-x="541" d="M443 0h-449l25 140l282 201h-247l25 140h449l-25 -140l-273 -201h238z" />
<glyph unicode="{" horiz-adv-x="387" d="M81 -232q-55 40 -55 125q0 28 6 59l27 154q2 9 2 23.5t-14.5 29t-39.5 14.5h-10l24 136h10q26 0 48 17t28 50l27 152q24 132 114 184q82 46 186 46l-27 -153q-101 0 -121 -112l-28 -157q-13 -77 -64 -94q6 -2 14 -12q18 -22 18 -60q0 -12 -2 -24l-28 -159q-3 -18 -3 -34 q0 -78 85 -78l-27 -153q-105 0 -170 46z" />
<glyph unicode="|" horiz-adv-x="280" d="M114 -278h-150l183 1037h150z" />
<glyph unicode="}" horiz-adv-x="387" d="M140 305q0 14 3 31l28 157q3 18 3 34q0 78 -85 78l27 153q105 0 170 -46q55 -40 55 -127q0 -26 -6 -57l-27 -152q-2 -9 -2 -23.5t14.5 -29t40.5 -14.5h10l-24 -136h-10q-26 0 -48 -17t-28 -50l-27 -154q-12 -65 -42 -112t-72 -72q-81 -46 -187 -46l27 153q102 0 122 112 l28 159q5 28 19.5 51.5t26.5 33.5t17 11q-33 15 -33 63z" />
<glyph unicode="~" horiz-adv-x="527" d="M340.5 210q-32.5 0 -86 21.5t-88.5 21.5q-59 0 -110 -19l-17 -7l20 111q4 6 12.5 15t41 24t73.5 15t101.5 -23t96 -23t61 7.5t35.5 14.5l9 8l-20 -120q-22 -18 -59 -32t-69.5 -14z" />
<glyph unicode="&#xa1;" horiz-adv-x="282" d="M62 219h133l-72 -529h-170zM256 423q0 -64 -28 -93.5t-89 -29.5q-84 0 -84 74q0 63 28.5 92t89.5 29q83 0 83 -72z" />
<glyph unicode="&#xa2;" horiz-adv-x="538" d="M368 492q149 -19 149 -138q0 -17 -3 -37l-173 -22q1 6 1 12q0 26 -22 38l-36 -207q26 14 29 37l166 -2q-28 -162 -199 -183l-16 -90h-130l16 91q-140 20 -140 139q0 20 4 43l22 124q29 162 202 192l21 121h130zM187 184q0 -27 18 -42l34 196q-30 -20 -37 -63l-13 -73 q-2 -10 -2 -18z" />
<glyph unicode="&#xa3;" d="M611 595q0 -15 -3 -32l-174 -27q1 6 1 15.5t-10.5 20.5t-34 11t-43.5 -14.5t-25 -42.5l-8 -45h216l-28 -156h-216l-29 -169h277l-28 -156h-509l28 156h52l29 169h-52l28 156h52l8 47q17 96 83.5 147t179.5 51.5t165 -41.5q41 -33 41 -90z" />
<glyph unicode="&#xa4;" horiz-adv-x="543" d="M352 142q-54 -30 -112.5 -30t-101.5 32l-78 -66l-49 60l78 66q-16 34 -16 78q0 68 51 134l-54 65l75 63l52 -65q55 33 114 33t102 -32l74 63l50 -60l-73 -63q16 -35 16 -80q0 -70 -57 -139l53 -63l-71 -60zM348 239.5q40 37.5 40 82.5t-26 72.5t-71.5 27.5t-85.5 -38 t-40 -83t26 -72t71.5 -27t85.5 37.5z" />
<glyph unicode="&#xa5;" horiz-adv-x="686" d="M500 95h-102l-17 -95h-181l17 95h-123l20 118h123l11 60h-168l21 118h109l-113 329h191l78 -253h23l169 253h180l-229 -329h93l-21 -118h-152l-11 -60h102z" />
<glyph unicode="&#xa6;" horiz-adv-x="282" d="M222 328h-150l76 431h150zM47 187h150l-82 -465h-150z" />
<glyph unicode="&#xa7;" horiz-adv-x="659" d="M165 -76q0 -69 99.5 -69t99.5 62q0 33 -34 54t-82.5 35t-97 32.5t-82.5 58t-34 98.5q0 111 81 181q-32 38 -32 100q0 119 79 185t245 66q118 0 178.5 -44.5t60.5 -123.5q0 -29 -8 -55.5t-16 -37.5l-8 -12h-177q22 23 22 58q0 65 -85 65q-106 0 -106 -68q0 -34 34 -54 t82.5 -31.5t97.5 -28.5t83 -56.5t34 -102.5q0 -113 -78 -182q28 -38 28 -99q0 -127 -76 -188.5t-234 -61.5t-217 57q-42 41 -42 115q0 28 6 61l3 16h180l-2 -12q-2 -10 -2 -18zM414 198q0 43 -58 67q-31 13 -76 26q-62 -13 -62 -63q0 -39 41 -58q31 -15 92 -31q63 11 63 59z " />
<glyph unicode="&#xa8;" horiz-adv-x="538" d="M161 622q0 51 23 74.5t71 23.5q67 0 67 -58q0 -51 -23 -74.5t-72 -23.5q-66 0 -66 58zM443 622q0 51 23 74.5t71 23.5q67 0 67 -58q0 -51 -23 -74.5t-72 -23.5q-66 0 -66 58z" />
<glyph unicode="&#xa9;" horiz-adv-x="709" d="M193.5 664q86.5 65 238.5 65t215 -65q49 -51 49 -123q0 -21 -4 -43l-36 -205q-21 -119 -105 -178t-240 -59t-217 60q-46 44 -46 121q0 26 5 56l36 205q18 101 104.5 166zM161 278q-2 -12 -2 -28.5t13 -39t44 -34.5q55 -22 100 -22t75 5t64 17t58.5 38.5t31.5 63.5l38 216 q2 14 2 29.5t-7 36t-22.5 33.5t-42.5 20q-39 10 -66 10h-41t-28.5 -0.5t-41 -3.5t-45.5 -11.5t-39 -21.5q-40 -27 -53 -92zM343 225q-65 0 -91 29q-17 20 -17 46t3 44l19 107q20 117 153 117q53 0 79.5 -23t26.5 -63q0 -33 -14 -64l-5 -9h-93q15 19 15 48t-25 29 q-37 0 -44 -41l-17 -94q-1 -8 -1 -14q0 -30 27 -30q34 0 41 40h93l-3 -15q-20 -107 -147 -107z" />
<glyph unicode="&#xaa;" horiz-adv-x="373" d="M342 564q0 -15 14 -15l21 5l-4 -62q-27 -19 -63 -19q-54 0 -62 40q-23 -40 -75 -40q-84 0 -84 71q0 12 2 26l10 58q8 45 38 72t76.5 27t65.5 -22l3 15h85l-26 -147q-1 -5 -1 -9zM188 576q0 -26 28 -26q17 0 30 13l13 75q-7 12 -30 12q-29 0 -35 -37l-5 -27q-1 -5 -1 -10z " />
<glyph unicode="&#xab;" horiz-adv-x="516" d="M148 84l-117 143l13 75l167 143l50 -78l-120 -103l84 -102zM379 84l-117 143l13 75l167 143l50 -78l-120 -103l84 -102z" />
<glyph unicode="&#xac;" horiz-adv-x="600" d="M375 45l29 164h-373l22 126h494l-51 -290h-121z" />
<glyph unicode="&#xae;" horiz-adv-x="709" d="M193.5 664q86.5 65 238.5 65t215 -65q49 -51 49 -123q0 -21 -4 -43l-36 -205q-21 -119 -105 -178t-240 -59t-217 60q-46 44 -46 121q0 26 5 56l36 205q18 101 104.5 166zM161 278q-2 -12 -2 -28.5t13 -39t44 -34.5q55 -22 100 -22t75 5t64 17t58.5 38.5t31.5 63.5l38 216 q2 14 2 29.5t-7 36t-22.5 33.5t-42.5 20q-39 10 -66 10h-41t-28.5 -0.5t-41 -3.5t-45.5 -11.5t-39 -21.5q-40 -27 -53 -92zM412 561q55 0 77 -20.5t22 -47.5q0 -8 -2 -17l-6 -35q-9 -55 -47 -78l40 -128h-101l-35 112h-32l-17 -112h-97l57 326h141zM383 480h-34l-12 -68h33 q44 0 44 43q0 25 -31 25z" />
<glyph unicode="&#xb0;" horiz-adv-x="344" d="M329 690.5q33 -34.5 33 -91t-50.5 -103t-107 -46.5t-89 33.5t-32.5 90t50 104t106.5 47.5t89.5 -34.5zM255 555q18 17 18 37t-12 32.5t-32.5 12.5t-38.5 -17t-18 -37.5t12 -32.5t32.5 -12t38.5 17z" />
<glyph unicode="&#xb1;" horiz-adv-x="483" d="M172 235l23 129h-126l21 118h126l21 124h118l-21 -124h127l-21 -118h-127l-23 -129h-118zM384 48h-371l21 118h371z" />
<glyph unicode="&#xb2;" horiz-adv-x="378" d="M287 611q0 29 -37 29q-25 0 -38.5 -15t-13.5 -41l3 -21h-98q-3 12 -3 31q0 61 42 97t120 36q127 0 127 -99q0 -41 -26.5 -75t-58 -51t-59.5 -31t-29 -19h134l-16 -88h-267l7 37q8 45 43.5 76.5t72.5 45.5t67 36.5t30 51.5z" />
<glyph unicode="&#xb3;" horiz-adv-x="371" d="M173 477q-6 -33 39 -33q20 0 33 11t13 28q0 25 -33 25h-51l10 54h40q24 1 40 15t16 31q0 32 -41 32t-41 -39l3 -16h-99q-2 9 -2 23q0 55 41 87t109.5 32t100.5 -25t32 -64.5t-24 -71t-54 -31.5v-1q24 0 37.5 -16.5t13.5 -43.5q0 -118 -162 -118q-68 0 -96 26t-28 66 q0 13 3 29h100z" />
<glyph unicode="&#xb4;" horiz-adv-x="402" d="M298 568h-148l164 239h180z" />
<glyph unicode="&#xb6;" horiz-adv-x="750" d="M252 219q-105 0 -160 53q-43 43 -43 103q0 16 3 34l20 113q16 92 82 145t180 53h239l-127 -720h-114l39 219h-119zM518 0l128 727h110l-128 -727h-110z" />
<glyph unicode="&#xb7;" horiz-adv-x="286" d="M49 310q0 64 28.5 93.5t88.5 29.5q84 0 84 -74q0 -63 -28.5 -92t-89.5 -29q-83 0 -83 72z" />
<glyph unicode="&#xb8;" horiz-adv-x="317" d="M251 -85q0 -54 -38.5 -81.5t-79.5 -27.5t-65.5 12t-33.5 24l-10 11l57 59q3 -12 16.5 -23t29.5 -11q47 0 47 32q0 29 -57 29l41 69h57l-21 -32q26 0 41.5 -15.5t15.5 -45.5z" />
<glyph unicode="&#xb9;" horiz-adv-x="308" d="M260 360h-105l39 225q-12 -20 -43.5 -38t-66.5 -18l-5 99q47 0 88 28.5t51 63.5h105z" />
<glyph unicode="&#xba;" horiz-adv-x="333" d="M242 727q109 0 109 -76q0 -11 -2 -23l-10 -59q-17 -97 -142 -97q-109 0 -109 73q0 11 2 24l10 59q17 97 142 99zM186 571q0 -24 25 -24q14 0 23.5 9.5t11.5 23.5l7 38q1 5 1 9q0 25 -25 25q-29 0 -35 -34l-7 -38q-1 -5 -1 -9z" />
<glyph unicode="&#xbb;" horiz-adv-x="516" d="M460 227l-167 -143l-49 78l120 102l-84 103l77 78l117 -143zM229 227l-167 -143l-49 78l120 102l-84 103l77 78l117 -143z" />
<glyph unicode="&#xbc;" horiz-adv-x="789" d="M76 0l520 727h140l-520 -727h-140zM262 360h-105l40 225q-12 -20 -44 -38t-67 -18l-4 99q47 0 88 28.5t51 63.5h105zM660 0h-104l11 63h-152l21 116l143 181h105l-146 -196l-5 -29h54l12 69h97l-12 -69h50l-13 -72h-50z" />
<glyph unicode="&#xbd;" horiz-adv-x="780" d="M51 0l520 727h140l-520 -727h-140zM263 360h-105l40 225q-12 -20 -44 -38t-67 -18l-4 99q47 0 88 28.5t51 63.5h105zM638 247q0 29 -37 29q-25 0 -38.5 -15t-13.5 -41l3 -21h-98q-3 12 -3 31q0 61 42 97t120 36q127 0 127 -99q0 -41 -26.5 -75t-58 -51t-59.5 -31t-29 -19 h134l-16 -88h-267l7 37q8 45 43.5 76.5t72.5 45.5t67 36.5t30 51.5z" />
<glyph unicode="&#xbe;" horiz-adv-x="775" d="M64 0l520 727h140l-520 -727h-140zM166 477q-6 -33 38 -33q21 0 34 11t13 28q0 25 -33 25h-51l10 54h40q24 1 40 15t16 31q0 32 -41 32t-41 -39l3 -16h-99q-2 9 -2 23q0 55 41 87t109.5 32t100.5 -25t32 -64.5t-24 -71t-54 -31.5v-1q24 0 37.5 -16.5t13.5 -43.5 q0 -118 -162 -118q-68 0 -96 26t-28 66q0 13 3 29h100zM648 0h-104l11 63h-152l20 116l144 181h105l-146 -196l-5 -29h54l12 69h97l-12 -69h50l-13 -72h-50z" />
<glyph unicode="&#xbf;" horiz-adv-x="588" d="M320 -38q0 23 -7 42h177q6 -24 6 -62q0 -116 -81 -183.5t-232 -67.5q-119 0 -176.5 44.5t-57.5 122.5q0 55 26.5 102t65.5 78t78 57t69 51t34 48l12 65h168l-11 -65q-9 -49 -37 -83.5t-61.5 -53t-66.5 -36.5q-76 -42 -76 -121q0 -54 70 -54q48 0 74 31.5t26 84.5z M447 423q0 -64 -28.5 -93.5t-88.5 -29.5q-84 0 -84 74q0 63 28.5 92t89.5 29q83 0 83 -72z" />
<glyph unicode="&#xc0;" horiz-adv-x="641" d="M375 0l6 157h-167l-49 -157h-191l257 720h330l4 -720h-190zM334 545l-79 -254h131l11 254h-63zM484 807h-148l-112 239h180z" />
<glyph unicode="&#xc1;" horiz-adv-x="641" d="M375 0l6 157h-167l-49 -157h-191l257 720h330l4 -720h-190zM334 545l-79 -254h131l11 254h-63zM468 807h-148l164 239h180z" />
<glyph unicode="&#xc2;" horiz-adv-x="641" d="M375 0l6 157h-167l-49 -157h-191l257 720h330l4 -720h-190zM334 545l-79 -254h131l11 254h-63zM342 807h-143l163 239h181l79 -239h-143l-48 118z" />
<glyph unicode="&#xc3;" horiz-adv-x="641" d="M375 0l6 157h-167l-49 -157h-191l257 720h330l4 -720h-190zM334 545l-79 -254h131l11 254h-63zM506 823q-32 0 -86 21.5t-88 21.5q-60 0 -111 -20l-17 -6l20 111q4 6 12.5 15t41 24t73.5 15t101.5 -23t96 -23t61 7.5t34.5 15.5l10 7l-20 -120q-22 -18 -59 -32t-69 -14z " />
<glyph unicode="&#xc4;" horiz-adv-x="641" d="M375 0l6 157h-167l-49 -157h-191l257 720h330l4 -720h-190zM334 545l-79 -254h131l11 254h-63zM208 861q0 51 23 74.5t71 23.5q67 0 67 -58q0 -51 -23 -74.5t-72 -23.5q-66 0 -66 58zM490 861q0 51 23 74.5t71 23.5q67 0 67 -58q0 -51 -23 -74.5t-72 -23.5q-66 0 -66 58z " />
<glyph unicode="&#xc5;" horiz-adv-x="641" d="M375 0l6 157h-167l-49 -157h-191l257 720h330l4 -720h-190zM334 545l-79 -254h131l11 254h-63zM504.5 825q-39.5 -37 -85 -37t-71.5 26.5t-26 72t39.5 82.5t85.5 37t71.5 -26.5t25.5 -72t-39.5 -82.5zM458.5 871.5q13.5 12.5 13.5 29t-9 25.5t-25.5 9t-30 -12.5 t-13.5 -29t9 -25.5t25.5 -9t30 12.5z" />
<glyph unicode="&#xc6;" horiz-adv-x="900" d="M804 0h-429l6 157h-167l-49 -157h-191l257 720h700l-28 -156h-342l2 -135h261l-28 -156h-233l1 -117h268zM334 545l-79 -254h131l11 254h-63z" />
<glyph unicode="&#xc7;" horiz-adv-x="648" d="M351 -85q0 -54 -38.5 -81.5t-79.5 -27.5t-65.5 12t-33.5 24l-10 11l57 59q3 -12 16.5 -23t29.5 -11q47 0 47 32q0 29 -57 29l28 48q-128 5 -177 67q-32 43 -32 115q0 34 7 75l41 230q45 253 325 253q116 0 176 -49.5t60 -135.5q0 -40 -11.5 -79.5t-22.5 -58.5l-11 -20 h-177q33 38 33 108q0 37 -19 58.5t-56 21.5q-101 0 -120 -112l-35 -202q-5 -26 -5 -51q0 -66 79 -66q95 0 114 107h180l-5 -29q-39 -220 -288 -232l-7 -11q26 0 41.5 -15.5t15.5 -45.5z" />
<glyph unicode="&#xc8;" horiz-adv-x="617" d="M521 0h-502l127 720h502l-28 -156h-322l-23 -135h266l-28 -156h-266l-20 -117h322zM491 807h-148l-112 239h180z" />
<glyph unicode="&#xc9;" horiz-adv-x="617" d="M521 0h-502l127 720h502l-28 -156h-322l-23 -135h266l-28 -156h-266l-20 -117h322zM484 807h-148l164 239h180z" />
<glyph unicode="&#xca;" horiz-adv-x="617" d="M521 0h-502l127 720h502l-28 -156h-322l-23 -135h266l-28 -156h-266l-20 -117h322zM376 807h-143l163 239h181l79 -239h-143l-48 118z" />
<glyph unicode="&#xcb;" horiz-adv-x="617" d="M521 0h-502l127 720h502l-28 -156h-322l-23 -135h266l-28 -156h-266l-20 -117h322zM254 861q0 51 23 74.5t71 23.5q67 0 67 -58q0 -51 -23 -74.5t-72 -23.5q-66 0 -66 58zM536 861q0 51 23 74.5t71 23.5q67 0 67 -58q0 -51 -23 -74.5t-72 -23.5q-66 0 -66 58z" />
<glyph unicode="&#xcc;" horiz-adv-x="322" d="M326 720l-126 -720h-181l127 720h180zM308 807h-148l-112 239h180z" />
<glyph unicode="&#xcd;" horiz-adv-x="322" d="M326 720l-126 -720h-181l127 720h180zM322 807h-148l164 239h180z" />
<glyph unicode="&#xce;" horiz-adv-x="322" d="M326 720l-126 -720h-181l127 720h180zM185 807h-143l163 239h181l79 -239h-143l-48 118z" />
<glyph unicode="&#xcf;" horiz-adv-x="322" d="M326 720l-126 -720h-181l127 720h180zM40 861q0 51 23 74.5t71 23.5q67 0 67 -58q0 -51 -23 -74.5t-72 -23.5q-66 0 -66 58zM322 861q0 51 23 74.5t71 23.5q67 0 67 -58q0 -51 -23 -74.5t-72 -23.5q-66 0 -66 58z" />
<glyph unicode="&#xd0;" horiz-adv-x="669" d="M426 720q131 0 187 -66q41 -50 41 -125q0 -27 -5 -57l-39 -223q-20 -113 -98 -181t-202 -68h-291l127 720h280zM322 156q47 0 73.5 25.5t36.5 83.5l29 164q4 22 4 40q0 95 -102 95h-65l-25 -143h108l-22 -126h-108l-24 -139h95z" />
<glyph unicode="&#xd1;" horiz-adv-x="697" d="M701 720l-126 -720h-181l-126 394l-68 -394h-181l127 720h186l124 -368l65 368h180zM541 823q-32 0 -86 21.5t-88 21.5q-60 0 -111 -19l-17 -7l20 111q4 6 12.5 15t41 24t73.5 15t101.5 -23t96 -23t61 7.5t34.5 14.5l10 8l-20 -120q-22 -18 -59 -32t-69 -14z" />
<glyph unicode="&#xd2;" horiz-adv-x="664" d="M408 727q241 0 241 -197q0 -33 -7 -71l-35 -200q-24 -139 -104 -206t-225 -67t-202 67q-39 46 -39 127q0 36 8 79l35 200q47 268 328 268zM305 141q50 0 80 26t42 96l34 192q3 20 3 36q0 81 -82 81q-103 -2 -123 -117l-34 -192q-4 -25 -4 -52q0 -70 84 -70zM507 807h-148 l-112 239h180z" />
<glyph unicode="&#xd3;" horiz-adv-x="664" d="M408 727q241 0 241 -197q0 -33 -7 -71l-35 -200q-24 -139 -104 -206t-225 -67t-202 67q-39 46 -39 127q0 36 8 79l35 200q47 268 328 268zM305 141q50 0 80 26t42 96l34 192q3 20 3 36q0 81 -82 81q-103 -2 -123 -117l-34 -192q-4 -25 -4 -52q0 -70 84 -70zM480 807h-148 l164 239h180z" />
<glyph unicode="&#xd4;" horiz-adv-x="664" d="M408 727q241 0 241 -197q0 -33 -7 -71l-35 -200q-24 -139 -104 -206t-225 -67t-202 67q-39 46 -39 127q0 36 8 79l35 200q47 268 328 268zM305 141q50 0 80 26t42 96l34 192q3 20 3 36q0 81 -82 81q-103 -2 -123 -117l-34 -192q-4 -25 -4 -52q0 -70 84 -70zM353 807h-143 l163 239h181l79 -239h-143l-48 118z" />
<glyph unicode="&#xd5;" horiz-adv-x="664" d="M408 727q241 0 241 -197q0 -33 -7 -71l-35 -200q-24 -139 -104 -206t-225 -67t-202 67q-39 46 -39 127q0 36 8 79l35 200q47 268 328 268zM305 141q50 0 80 26t42 96l34 192q3 20 3 36q0 81 -82 81q-103 -2 -123 -117l-34 -192q-4 -25 -4 -52q0 -70 84 -70zM517 823 q-32 0 -85.5 21.5t-88.5 21.5q-60 0 -111 -20l-17 -6l20 111q4 6 12.5 15t41 24t73.5 15t101.5 -23t96 -23t61 7.5t35.5 15.5l9 7l-20 -120q-22 -18 -59 -32t-69 -14z" />
<glyph unicode="&#xd6;" horiz-adv-x="664" d="M408 727q241 0 241 -197q0 -33 -7 -71l-35 -200q-24 -139 -104 -206t-225 -67t-202 67q-39 46 -39 127q0 36 8 79l35 200q47 268 328 268zM305 141q50 0 80 26t42 96l34 192q3 20 3 36q0 81 -82 81q-103 -2 -123 -117l-34 -192q-4 -25 -4 -52q0 -70 84 -70zM214 861 q0 51 23 74.5t71 23.5q67 0 67 -58q0 -51 -23 -74.5t-72 -23.5q-66 0 -66 58zM496 861q0 51 23 74.5t71 23.5q67 0 67 -58q0 -51 -23 -74.5t-72 -23.5q-66 0 -66 58z" />
<glyph unicode="&#xd7;" horiz-adv-x="425" d="M263 74l-76 91l-105 -89l-68 84l105 89l-73 88l99 83l71 -88l106 90l70 -83l-106 -90l75 -91z" />
<glyph unicode="&#xd8;" horiz-adv-x="664" d="M408 727q15 0 39 -2l17 35h137l-33 -68q80 -48 80 -163q0 -32 -6 -70l-35 -200q-24 -139 -104 -206t-225 -67q-18 0 -46 2l-27 -57h-138l44 92q-73 46 -73 159q0 35 7 77l35 200q47 268 328 268zM305 141q50 0 80 26t42 96l34 192q2 12 2 17zM259 455l-35 -195l150 312 q-95 -7 -115 -117z" />
<glyph unicode="&#xd9;" horiz-adv-x="691" d="M291 -14q-145 0 -201 67q-40 46 -40 127q0 36 8 79l81 461h180l-81 -457q-4 -25 -4 -52q0 -70 84 -70q50 0 80 26t42 96l81 457h180l-81 -461q-25 -140 -104.5 -206.5t-224.5 -66.5zM507 807h-148l-112 239h180z" />
<glyph unicode="&#xda;" horiz-adv-x="691" d="M291 -14q-145 0 -201 67q-40 46 -40 127q0 36 8 79l81 461h180l-81 -457q-4 -25 -4 -52q0 -70 84 -70q50 0 80 26t42 96l81 457h180l-81 -461q-25 -140 -104.5 -206.5t-224.5 -66.5zM488 807h-148l164 239h180z" />
<glyph unicode="&#xdb;" horiz-adv-x="691" d="M291 -14q-145 0 -201 67q-40 46 -40 127q0 36 8 79l81 461h180l-81 -457q-4 -25 -4 -52q0 -70 84 -70q50 0 80 26t42 96l81 457h180l-81 -461q-25 -140 -104.5 -206.5t-224.5 -66.5zM366 807h-143l163 239h181l79 -239h-143l-48 118z" />
<glyph unicode="&#xdc;" horiz-adv-x="691" d="M291 -14q-145 0 -201 67q-40 46 -40 127q0 36 8 79l81 461h180l-81 -457q-4 -25 -4 -52q0 -70 84 -70q50 0 80 26t42 96l81 457h180l-81 -461q-25 -140 -104.5 -206.5t-224.5 -66.5zM232 861q0 51 23 74.5t71 23.5q67 0 67 -58q0 -51 -23 -74.5t-72 -23.5q-66 0 -66 58z M514 861q0 51 23 74.5t71 23.5q67 0 67 -58q0 -51 -23 -74.5t-72 -23.5q-66 0 -66 58z" />
<glyph unicode="&#xdd;" horiz-adv-x="644" d="M367 467l169 253h180l-308 -443l-49 -277h-181l49 277l-152 443h191l78 -253h23zM464 807h-148l164 239h180z" />
<glyph unicode="&#xde;" horiz-adv-x="642" d="M431 612q113 0 161 -52q35 -40 35 -102q0 -21 -4 -44l-20 -113q-15 -83 -88 -136.5t-178 -53.5h-119l-20 -111h-180l127 721h180l-19 -109h125zM368 456h-90l-33 -189h89q82 0 95 73l7 41q2 9 2 24t-15 33t-55 18z" />
<glyph unicode="&#xdf;" horiz-adv-x="645" d="M395 727q99 0 167 -40q35 -21 51 -61q10 -25 10 -49t-4 -45l-9 -48q-11 -57 -42.5 -89t-55.5 -32l-1 -8q28 0 57 -31t29 -73q0 -17 -4 -36l-6 -31q-16 -86 -76.5 -135t-168.5 -49q-36 0 -59.5 7.5t-28.5 14.5l-6 8l28 156q4 -11 22 -20.5t44.5 -9.5t49.5 22.5t23 53.5 q0 62 -80 62h-35l21 121h14q97 0 97 89q0 29 -17 48.5t-51 19.5q-75 0 -92 -97l-84 -475h-180l84 474q45 253 303 253z" />
<glyph unicode="&#xe0;" d="M491 154q0 -26 26.5 -26t44.5 10l-5 -113q-48 -39 -108 -39q-110 0 -122 80q-50 -80 -147 -80q-164 0 -164 141q0 24 5 53l21 117q16 90 73.5 143.5t150 53.5t125.5 -43l5 30h152l-56 -315q-1 -6 -1 -12zM195 202q-2 -9 -2 -25t15 -31.5t50.5 -15.5t61.5 28l30 168 q-11 25 -52 25q-77 0 -90 -74zM436 568h-148l-112 239h180z" />
<glyph unicode="&#xe1;" d="M491 154q0 -26 26.5 -26t44.5 10l-5 -113q-48 -39 -108 -39q-110 0 -122 80q-50 -80 -147 -80q-164 0 -164 141q0 24 5 53l21 117q16 90 73.5 143.5t150 53.5t125.5 -43l5 30h152l-56 -315q-1 -6 -1 -12zM195 202q-2 -9 -2 -25t15 -31.5t50.5 -15.5t61.5 28l30 168 q-11 25 -52 25q-77 0 -90 -74zM412 568h-148l164 239h180z" />
<glyph unicode="&#xe2;" d="M491 154q0 -26 26.5 -26t44.5 10l-5 -113q-48 -39 -108 -39q-110 0 -122 80q-50 -80 -147 -80q-164 0 -164 141q0 24 5 53l21 117q16 90 73.5 143.5t150 53.5t125.5 -43l5 30h152l-56 -315q-1 -6 -1 -12zM195 202q-2 -9 -2 -25t15 -31.5t50.5 -15.5t61.5 28l30 168 q-11 25 -52 25q-77 0 -90 -74zM292 568h-143l163 239h181l79 -239h-143l-48 118z" />
<glyph unicode="&#xe3;" d="M491 154q0 -26 26.5 -26t44.5 10l-5 -113q-48 -39 -108 -39q-110 0 -122 80q-50 -80 -147 -80q-164 0 -164 141q0 24 5 53l21 117q16 90 73.5 143.5t150 53.5t125.5 -43l5 30h152l-56 -315q-1 -6 -1 -12zM195 202q-2 -9 -2 -25t15 -31.5t50.5 -15.5t61.5 28l30 168 q-11 25 -52 25q-77 0 -90 -74zM456 584q-32 0 -86 21.5t-88 21.5q-60 0 -111 -19l-17 -7l20 111q4 6 12.5 15t41 24t73.5 15t101.5 -23t96 -23t61 7.5t34.5 14.5l10 8l-20 -120q-22 -18 -59 -32t-69 -14z" />
<glyph unicode="&#xe4;" d="M491 154q0 -26 26.5 -26t44.5 10l-5 -113q-48 -39 -108 -39q-110 0 -122 80q-50 -80 -147 -80q-164 0 -164 141q0 24 5 53l21 117q16 90 73.5 143.5t150 53.5t125.5 -43l5 30h152l-56 -315q-1 -6 -1 -12zM195 202q-2 -9 -2 -25t15 -31.5t50.5 -15.5t61.5 28l30 168 q-11 25 -52 25q-77 0 -90 -74zM162 622q0 51 23 74.5t71 23.5q67 0 67 -58q0 -51 -23 -74.5t-72 -23.5q-66 0 -66 58zM444 622q0 51 23 74.5t71 23.5q67 0 67 -58q0 -51 -23 -74.5t-72 -23.5q-66 0 -66 58z" />
<glyph unicode="&#xe5;" d="M491 154q0 -26 26.5 -26t44.5 10l-5 -113q-48 -39 -108 -39q-110 0 -122 80q-50 -80 -147 -80q-164 0 -164 141q0 24 5 53l21 117q16 90 73.5 143.5t150 53.5t125.5 -43l5 30h152l-56 -315q-1 -6 -1 -12zM195 202q-2 -9 -2 -25t15 -31.5t50.5 -15.5t61.5 28l30 168 q-11 25 -52 25q-77 0 -90 -74zM447.5 586q-39.5 -37 -85 -37t-71.5 26.5t-26 72t39.5 82.5t85.5 37t71.5 -26.5t25.5 -72t-39.5 -82.5zM401.5 632.5q13.5 12.5 13.5 29t-9 25.5t-25.5 9t-30 -12.5t-13.5 -29t9 -25.5t25.5 -9t30 12.5z" />
<glyph unicode="&#xe6;" horiz-adv-x="854" d="M526 -14q-150 0 -191 72q-23 -28 -64.5 -50t-95.5 -22q-93 0 -132 50q-27 35 -27 91q0 24 5 53l21 117q16 90 73.5 143.5t150 53.5t125.5 -43l5 30h111q51 15 114 15q202 0 202 -150q0 -23 -5 -50l-12 -71h-304l-6 -36q-1 -7 -1 -13q0 -26 17.5 -38.5t32.5 -12.5 q54 0 76 50l166 -2q-33 -187 -261 -187zM195 202q-2 -9 -2 -25t15 -31.5t50.5 -15.5t60.5 27l31 169q-11 25 -52 25q-77 0 -90 -74zM646 286q4 17 4 31.5t-13 29.5t-40 15q-60 0 -83 -70l-2 -6h134z" />
<glyph unicode="&#xe7;" horiz-adv-x="551" d="M288 -85q0 -54 -38.5 -81.5t-79.5 -27.5t-65.5 12t-34.5 24l-9 11l57 59q3 -12 16.5 -23t29.5 -11q47 0 47 32q0 29 -57 29l29 49q-165 15 -165 143q0 20 4 42l21 124q16 96 87.5 147t181.5 52q213 0 213 -148q0 -32 -7.5 -57.5t-15.5 -34.5l-8 -10h-170q25 22 25 52 q0 54 -54 54q-32 0 -55 -19t-30 -58l-13 -73q-2 -10 -2 -19q0 -53 66 -53q22 0 39.5 13t20.5 30h166q-33 -183 -250 -187l-6 -10q26 0 41.5 -15.5t15.5 -45.5z" />
<glyph unicode="&#xe8;" horiz-adv-x="552" d="M224 -14q-208 0 -208 144q0 20 4 43l21 124q17 96 88.5 147.5t189.5 51.5q201 0 201 -152q0 -22 -4 -48l-12 -71h-305l-4 -23q-2 -12 -2 -22q0 -55 65 -55q24 0 41 15t20 35l166 -2q-33 -187 -261 -187zM344 286q4 17 4 31.5t-13 29.5t-41.5 15t-52 -19t-32.5 -57h135z M408 568h-148l-112 239h180z" />
<glyph unicode="&#xe9;" horiz-adv-x="552" d="M224 -14q-208 0 -208 144q0 20 4 43l21 124q17 96 88.5 147.5t189.5 51.5q201 0 201 -152q0 -22 -4 -48l-12 -71h-305l-4 -23q-2 -12 -2 -22q0 -55 65 -55q24 0 41 15t20 35l166 -2q-33 -187 -261 -187zM344 286q4 17 4 31.5t-13 29.5t-41.5 15t-52 -19t-32.5 -57h135z M393 568h-148l164 239h180z" />
<glyph unicode="&#xea;" horiz-adv-x="552" d="M224 -14q-208 0 -208 144q0 20 4 43l21 124q17 96 88.5 147.5t189.5 51.5q201 0 201 -152q0 -22 -4 -48l-12 -71h-305l-4 -23q-2 -12 -2 -22q0 -55 65 -55q24 0 41 15t20 35l166 -2q-33 -187 -261 -187zM344 286q4 17 4 31.5t-13 29.5t-41.5 15t-52 -19t-32.5 -57h135z M265 568h-143l163 239h181l79 -239h-143l-48 118z" />
<glyph unicode="&#xeb;" horiz-adv-x="552" d="M224 -14q-208 0 -208 144q0 20 4 43l21 124q17 96 88.5 147.5t189.5 51.5q201 0 201 -152q0 -22 -4 -48l-12 -71h-305l-4 -23q-2 -12 -2 -22q0 -55 65 -55q24 0 41 15t20 35l166 -2q-33 -187 -261 -187zM344 286q4 17 4 31.5t-13 29.5t-41.5 15t-52 -19t-32.5 -57h135z M119 622q0 51 23 74.5t71 23.5q67 0 67 -58q0 -51 -23 -74.5t-72 -23.5q-66 0 -66 58zM401 622q0 51 23 74.5t71 23.5q67 0 67 -58q0 -51 -23 -74.5t-72 -23.5q-66 0 -66 58z" />
<glyph unicode="&#xec;" horiz-adv-x="313" d="M203 154q0 -26 26.5 -26t44.5 10l-5 -113q-48 -39 -108 -39q-91 0 -117 42q-18 27 -18 59t4 56l60 338h170l-56 -315q-1 -6 -1 -12zM263 568h-148l-112 239h180z" />
<glyph unicode="&#xed;" horiz-adv-x="313" d="M202 154q0 -26 26.5 -26t44.5 10l-5 -113q-48 -39 -108 -39q-91 0 -118 42q-17 27 -17 59t4 56l60 338h170l-56 -315q-1 -6 -1 -12zM258 568h-148l164 239h180z" />
<glyph unicode="&#xee;" horiz-adv-x="313" d="M203 154q0 -26 26.5 -26t44.5 10l-5 -113q-48 -39 -108 -39q-91 0 -117 42q-18 27 -18 59t4 56l60 338h170l-56 -315q-1 -6 -1 -12zM122 568h-143l163 239h181l79 -239h-143l-48 118z" />
<glyph unicode="&#xef;" horiz-adv-x="313" d="M203 154q0 -26 26.5 -26t44.5 10l-5 -113q-48 -39 -108 -39q-91 0 -117 42q-18 27 -18 59t4 56l60 338h170l-56 -315q-1 -6 -1 -12zM-14 622q0 51 23 74.5t71 23.5q67 0 67 -58q0 -51 -23 -74.5t-72 -23.5q-66 0 -66 58zM268 622q0 51 23 74.5t71 23.5q67 0 67 -58 q0 -51 -23 -74.5t-72 -23.5q-66 0 -66 58z" />
<glyph unicode="&#xf0;" horiz-adv-x="628" d="M370 571l-14 1q-99 0 -99 -80l3 -28h-177q-4 16 -4 42q0 103 78 162t225 59q85 0 143 -25l64 54l64 -77l-54 -45q20 -39 20 -82t-6 -78l-40 -230q-23 -133 -100 -195.5t-220 -62.5q-240 0 -240 186q0 107 64 178.5t182 71.5h165l7 38q3 20 3 35l-53 -45l-63 77zM280 141 q47 0 75.5 25t39.5 92l5 29h-103q-43 0 -72.5 -21.5t-29.5 -68.5q0 -56 85 -56z" />
<glyph unicode="&#xf1;" horiz-adv-x="598" d="M344 307q0 43 -41.5 43t-68.5 -31l-56 -319h-170l85 481h158l-11 -59q59 73 149 73t117 -44q17 -28 17 -64t-5 -67l-27 -154q-1 -6 -1 -11q0 -27 30 -27q23 0 41 10l-5 -113q-47 -39 -107 -39q-136 0 -136 114q0 20 4 43l24 133q3 18 3 31zM425 584q-32 0 -86 21.5 t-88 21.5q-60 0 -111 -19l-17 -7l20 111q4 6 12.5 15t41 24t73.5 15t101.5 -23t96 -23t61 7.5t34.5 14.5l10 8l-20 -120q-22 -18 -59 -32t-69 -14z" />
<glyph unicode="&#xf2;" horiz-adv-x="564" d="M321 495q108 0 163 -47q43 -37 43 -103q0 -22 -5 -48l-21 -117q-19 -106 -88.5 -150t-185.5 -44t-170 44q-40 33 -40 99q0 23 5 51l21 117q35 198 278 198zM348 277q2 10 2 25.5t-13 34.5t-45.5 19t-54.5 -21.5t-28 -57.5l-13 -75q-2 -10 -2 -25.5t13 -33.5t45.5 -18 t54.5 22.5t28 54.5zM411 568h-148l-112 239h180z" />
<glyph unicode="&#xf3;" horiz-adv-x="564" d="M321 495q108 0 163 -47q43 -37 43 -103q0 -22 -5 -48l-21 -117q-19 -106 -88.5 -150t-185.5 -44t-170 44q-40 33 -40 99q0 23 5 51l21 117q35 198 278 198zM348 277q2 10 2 25.5t-13 34.5t-45.5 19t-54.5 -21.5t-28 -57.5l-13 -75q-2 -10 -2 -25.5t13 -33.5t45.5 -18 t54.5 22.5t28 54.5zM388 568h-148l164 239h180z" />
<glyph unicode="&#xf4;" horiz-adv-x="564" d="M321 495q108 0 163 -47q43 -37 43 -103q0 -22 -5 -48l-21 -117q-19 -106 -88.5 -150t-185.5 -44t-170 44q-40 33 -40 99q0 23 5 51l21 117q35 198 278 198zM348 277q2 10 2 25.5t-13 34.5t-45.5 19t-54.5 -21.5t-28 -57.5l-13 -75q-2 -10 -2 -25.5t13 -33.5t45.5 -18 t54.5 22.5t28 54.5zM258 568h-143l163 239h181l79 -239h-143l-48 118z" />
<glyph unicode="&#xf5;" horiz-adv-x="564" d="M321 495q108 0 163 -47q43 -37 43 -103q0 -22 -5 -48l-21 -117q-19 -106 -88.5 -150t-185.5 -44t-170 44q-40 33 -40 99q0 23 5 51l21 117q35 198 278 198zM348 277q2 10 2 25.5t-13 34.5t-45.5 19t-54.5 -21.5t-28 -57.5l-13 -75q-2 -10 -2 -25.5t13 -33.5t45.5 -18 t54.5 22.5t28 54.5zM417 584q-32 0 -86 21.5t-88 21.5q-60 0 -111 -19l-17 -7l20 111q4 6 12.5 15t41 24t73.5 15t101.5 -23t96 -23t61 7.5t34.5 14.5l10 8l-20 -120q-22 -18 -59 -32t-69 -14z" />
<glyph unicode="&#xf6;" horiz-adv-x="564" d="M321 495q108 0 163 -47q43 -37 43 -103q0 -22 -5 -48l-21 -117q-19 -106 -88.5 -150t-185.5 -44t-170 44q-40 33 -40 99q0 23 5 51l21 117q35 198 278 198zM348 277q2 10 2 25.5t-13 34.5t-45.5 19t-54.5 -21.5t-28 -57.5l-13 -75q-2 -10 -2 -25.5t13 -33.5t45.5 -18 t54.5 22.5t28 54.5zM119 622q0 51 23 74.5t71 23.5q67 0 67 -58q0 -51 -23 -74.5t-72 -23.5q-66 0 -66 58zM401 622q0 51 23 74.5t71 23.5q67 0 67 -58q0 -51 -23 -74.5t-72 -23.5q-66 0 -66 58z" />
<glyph unicode="&#xf7;" horiz-adv-x="438" d="M397 244h-371l21 118h371zM76 83q0 64 28.5 93.5t79.5 29.5t72 -17.5t21 -56.5q0 -63 -28.5 -92t-89.5 -29q-83 0 -83 72zM145 476q0 64 28.5 93.5t80 29.5t72 -17.5t20.5 -56.5q0 -63 -28.5 -92t-89.5 -29q-83 0 -83 72z" />
<glyph unicode="&#xf8;" horiz-adv-x="564" d="M227 -14l-35 1l-27 -56h-85l34 69q-97 30 -97 132q0 22 5 48l21 117q17 97 87 147.5t187 50.5q24 0 36 -1l28 56h84l-35 -71q96 -35 96 -136q0 -22 -4 -46l-21 -117q-19 -106 -88.5 -150t-185.5 -44zM196 202q-2 -13 -2 -21t1 -13l91 188q-31 -2 -51 -23t-26 -56z M350 296.5q0 8.5 -2 14.5l-89 -186q29 2 49.5 24.5t26.5 52.5l13 75q2 11 2 19.5z" />
<glyph unicode="&#xf9;" horiz-adv-x="615" d="M504 154q0 -26 26.5 -26t44.5 10l-5 -113q-48 -39 -108 -39q-113 0 -123 87q-60 -87 -161.5 -87t-131.5 46q-20 29 -20 66t6 68l56 315h170l-47 -266q-3 -18 -3 -36q0 -48 54 -48q45 0 72 31l57 319h170l-56 -315q-1 -6 -1 -12zM413 568h-148l-112 239h180z" />
<glyph unicode="&#xfa;" horiz-adv-x="615" d="M504 154q0 -26 26.5 -26t44.5 10l-5 -113q-48 -39 -108 -39q-113 0 -123 87q-60 -87 -161.5 -87t-131.5 46q-20 29 -20 66t6 68l56 315h170l-47 -266q-3 -18 -3 -36q0 -48 54 -48q45 0 72 31l57 319h170l-56 -315q-1 -6 -1 -12zM392 568h-148l164 239h180z" />
<glyph unicode="&#xfb;" horiz-adv-x="615" d="M504 154q0 -26 26.5 -26t44.5 10l-5 -113q-48 -39 -108 -39q-113 0 -123 87q-60 -87 -161.5 -87t-131.5 46q-20 29 -20 66t6 68l56 315h170l-47 -266q-3 -18 -3 -36q0 -48 54 -48q45 0 72 31l57 319h170l-56 -315q-1 -6 -1 -12zM266 568h-143l163 239h181l79 -239h-143 l-48 118z" />
<glyph unicode="&#xfc;" horiz-adv-x="615" d="M504 154q0 -26 26.5 -26t44.5 10l-5 -113q-48 -39 -108 -39q-113 0 -123 87q-60 -87 -161.5 -87t-131.5 46q-20 29 -20 66t6 68l56 315h170l-47 -266q-3 -18 -3 -36q0 -48 54 -48q45 0 72 31l57 319h170l-56 -315q-1 -6 -1 -12zM142 622q0 51 23 74.5t71 23.5 q67 0 67 -58q0 -51 -23 -74.5t-72 -23.5q-66 0 -66 58zM424 622q0 51 23 74.5t71 23.5q67 0 67 -58q0 -51 -23 -74.5t-72 -23.5q-66 0 -66 58z" />
<glyph unicode="&#xfd;" horiz-adv-x="570" d="M213 215q-3 -18 -3 -36q0 -48 54 -48q44 0 73 31l56 319h170l-88 -497q-22 -127 -100.5 -201t-179.5 -74t-145.5 37t-44.5 97q0 85 105 151q-57 14 -72 57q-9 24 -9 54t5 61l56 315h170zM218 -148q65 0 85 118l10 58q-139 -65 -139 -131q0 -20 11.5 -32.5t32.5 -12.5z M394 568h-148l164 239h180z" />
<glyph unicode="&#xfe;" horiz-adv-x="575" d="M368 494q102 0 141 -54q28 -37 28 -94q0 -23 -5 -49l-20 -117q-17 -95 -73 -144.5t-140 -49.5t-117 45l-54 -309h-170l184 1037h169l-55 -305q40 40 112 40zM264 130q28 0 52 18t30 54l13 75q2 10 2 25t-13 32t-45 17q-52 0 -68 -25l-30 -168q14 -28 59 -28z" />
<glyph unicode="&#xff;" horiz-adv-x="570" d="M213 215q-3 -18 -3 -36q0 -48 54 -48q44 0 73 31l56 319h170l-88 -497q-22 -127 -100.5 -201t-179.5 -74t-145.5 37t-44.5 97q0 85 105 151q-57 14 -72 57q-9 24 -9 54t5 61l56 315h170zM218 -148q65 0 85 118l10 58q-139 -65 -139 -131q0 -20 11.5 -32.5t32.5 -12.5z M148 622q0 51 23 74.5t71 23.5q67 0 67 -58q0 -51 -23 -74.5t-72 -23.5q-66 0 -66 58zM430 622q0 51 23 74.5t71 23.5q67 0 67 -58q0 -51 -23 -74.5t-72 -23.5q-66 0 -66 58z" />
<glyph unicode="&#x141;" horiz-adv-x="593" d="M531 0h-456l42 237l-78 -41l-44 109l147 77l60 338h180l-41 -234l125 66l43 -109l-194 -102l-32 -185h276z" />
<glyph unicode="&#x142;" horiz-adv-x="399" d="M296 128q23 0 41 10l-5 -113q-48 -39 -108 -39q-91 0 -118 42q-17 27 -17 59t4 56l23 130l-58 -30l-44 109l128 67l60 340h170l-43 -242l67 36l44 -109l-137 -72l-36 -206q-1 -6 -1 -11q0 -27 30 -27z" />
<glyph unicode="&#x152;" horiz-adv-x="980" d="M278 0q-144 0 -200 61q-39 43 -39 123q0 34 7 75l35 200q23 131 103 196t224 65h603l-28 -156h-322l-24 -135h266l-27 -156h-266l-21 -117h322l-27 -156h-606zM306 141q50 0 80 26t42 96l34 192q3 20 3 36q0 81 -82 81q-103 -2 -123 -117l-34 -192q-4 -25 -4 -52 q0 -70 84 -70z" />
<glyph unicode="&#x153;" horiz-adv-x="862" d="M535 -14q-94 0 -148 30q-61 -30 -168.5 -30t-161.5 44q-40 33 -40 99q0 23 5 51l21 117q17 97 87 147.5t176.5 50.5t160.5 -35q67 36 163 36q202 0 202 -152q0 -22 -4 -48l-12 -71h-306l-4 -23q-2 -12 -2 -22q0 -55 66 -55q24 0 40.5 15t19.5 35l166 -2 q-33 -187 -261 -187zM348 277q2 10 2 25.5t-13 34.5t-45.5 19t-54.5 -21.5t-28 -57.5l-13 -75q-2 -10 -2 -25.5t13 -33.5t45.5 -18t54.5 22.5t28 54.5zM656 286q4 17 4 31.5t-13.5 29.5t-42 15t-51.5 -19t-32 -57h135z" />
<glyph unicode="&#x160;" horiz-adv-x="648" d="M210 205q0 -69 99.5 -69t99.5 62q0 33 -34 54t-82.5 35t-97 32.5t-82.5 58t-34 98.5q0 251 323 251q118 0 178.5 -44.5t60.5 -123.5q0 -29 -7.5 -55.5t-15.5 -37.5l-8 -12h-177q22 23 22 58q0 65 -85 65q-107 0 -107 -68q0 -34 34 -54t82.5 -31.5t97.5 -28.5t83 -56.5 t34 -102.5q0 -127 -76 -188.5t-234 -61.5t-216 56q-43 42 -43 116q0 28 6 61l3 16h180l-2 -12q-2 -10 -2 -18zM338 807v1l-79 238h143l47 -118l90 118h143l-164 -238l1 -1h-181z" />
<glyph unicode="&#x161;" horiz-adv-x="549" d="M522 377q0 -33 -20 -61h-164q8 6 8 20t-16 22.5t-41 8.5q-75 0 -75 -46q0 -18 28 -26t68 -13t80 -14.5t68 -37.5t28 -75q0 -83 -66.5 -126t-193.5 -43t-178 41q-40 32 -40 88q0 16 3 33l167 2q-2 -14 16.5 -24.5t54.5 -10.5t52 7.5t16 28.5q0 14 -28 19.5t-68.5 9.5 t-81 13t-68.5 38t-28 76q0 91 70.5 140t203.5 49q205 0 205 -119zM248 568v1l-79 238h143l47 -118l90 118h143l-164 -238l1 -1h-181z" />
<glyph unicode="&#x178;" horiz-adv-x="644" d="M367 467l169 253h180l-308 -443l-49 -277h-181l49 277l-152 443h191l78 -253h23zM210 861q0 51 23 74.5t71 23.5q67 0 67 -58q0 -51 -23 -74.5t-72 -23.5q-66 0 -66 58zM492 861q0 51 23 74.5t71 23.5q67 0 67 -58q0 -51 -23 -74.5t-72 -23.5q-66 0 -66 58z" />
<glyph unicode="&#x17d;" horiz-adv-x="618" d="M520 0h-527l28 156h1l387 408h-317l28 156h528l-28 -156l-387 -408h315zM285 807v1l-79 238h143l47 -118l90 118h143l-164 -238l1 -1h-181z" />
<glyph unicode="&#x17e;" horiz-adv-x="541" d="M443 0h-449l25 140l282 201h-247l25 140h449l-25 -140l-273 -201h238zM223 568v1l-79 238h143l47 -118l90 118h143l-164 -238l1 -1h-181z" />
<glyph unicode="&#x192;" horiz-adv-x="552" d="M460 -18q0 -146 -74.5 -239.5t-202 -93.5t-169.5 63q-26 40 -26 97.5t10 114.5l128 724h170l-30 -167h249l-25 -141h-196q71 -57 118.5 -148t47.5 -210zM284 -24q0 145 -60 269l-56 -320q-6 -35 -6 -61q0 -72 47 -72q31 0 53 50t22 134z" />
<glyph unicode="&#x2c6;" horiz-adv-x="523" d="M293 568h-143l163 239h181l79 -239h-143l-48 118z" />
<glyph unicode="&#x2c7;" horiz-adv-x="523" d="M271 568v1l-79 238h143l47 -118l90 118h143l-164 -238l1 -1h-181z" />
<glyph unicode="&#x2d8;" horiz-adv-x="396" d="M275 711q0 -42 41 -42q27 0 41.5 16t20.5 51h98q-12 -70 -53.5 -116.5t-122.5 -46.5q-125 0 -125 114q0 22 5 49h97q-2 -14 -2 -25z" />
<glyph unicode="&#x2da;" horiz-adv-x="318" d="M346.5 586q-39.5 -37 -85 -37t-71.5 26.5t-26 72t39.5 82.5t85.5 37t71.5 -26.5t25.5 -72t-39.5 -82.5zM300.5 632.5q13.5 12.5 13.5 29t-9 25.5t-25.5 9t-30 -12.5t-13.5 -29t9 -25.5t25.5 -9t30 12.5z" />
<glyph unicode="&#x2db;" horiz-adv-x="317" d="M121.5 -194q-35.5 0 -63 20t-27.5 63.5t42 78.5t84 46l42 11l31 -23q-69 -17 -97 -54q-12 -15 -12 -30.5t10 -25t26.5 -9.5t30.5 8t20 16l7 8l26 -62q-19 -19 -51.5 -33t-68 -14z" />
<glyph unicode="&#x2dc;" horiz-adv-x="525" d="M458 584q-32 0 -86 21.5t-88 21.5q-60 0 -111 -19l-17 -7l20 111q4 6 12.5 15t41 24t73.5 15t101.5 -23t96 -23t61 7.5t34.5 14.5l10 8l-20 -120q-22 -18 -59 -32t-69 -14z" />
<glyph unicode="&#x2dd;" horiz-adv-x="715" d="M298 568h-148l164 239h180zM611 568h-148l164 239h180z" />
<glyph unicode="&#x3bc;" horiz-adv-x="594" d="M183 -14h-7l-47 -264h-170l134 759h170l-47 -266q-3 -18 -3 -36q0 -48 54 -48q44 0 73 31l56 319h170l-84 -481h-149l13 75q-60 -89 -163 -89z" />
<glyph unicode="&#x2013;" horiz-adv-x="607" d="M535 209h-494l22 126h494z" />
<glyph unicode="&#x2014;" horiz-adv-x="813" d="M741 209h-700l22 126h700z" />
<glyph unicode="&#x2018;" horiz-adv-x="292" d="M295 545q0 -64 -28.5 -93.5t-88.5 -29.5q-91 0 -91 89q0 151 72.5 222.5t205.5 71.5l-12 -72q-36 0 -83.5 -30.5t-57.5 -85.5q83 0 83 -72z" />
<glyph unicode="&#x2019;" horiz-adv-x="316" d="M136 682q0 64 28.5 93.5t88.5 29.5q91 0 91 -89q0 -294 -279 -294l13 72q36 0 83.5 30.5t57.5 85.5q-83 0 -83 72z" />
<glyph unicode="&#x201a;" horiz-adv-x="295" d="M5 58q0 64 28.5 93.5t89.5 29.5q90 0 90 -89q0 -294 -278 -294l13 72q53 0 105 50q29 28 35 66q-83 0 -83 72z" />
<glyph unicode="&#x201c;" horiz-adv-x="562" d="M565 545q0 -64 -28.5 -93.5t-88.5 -29.5q-91 0 -91 89q0 151 72.5 222.5t205.5 71.5l-12 -72q-36 0 -83.5 -30.5t-57.5 -85.5q83 0 83 -72zM295 545q0 -64 -28.5 -93.5t-88.5 -29.5q-91 0 -91 89q0 151 72.5 222.5t205.5 71.5l-12 -72q-36 0 -83.5 -30.5t-57.5 -85.5 q83 0 83 -72z" />
<glyph unicode="&#x201d;" horiz-adv-x="586" d="M136 682q0 64 28.5 93.5t88.5 29.5q91 0 91 -89q0 -294 -279 -294l13 72q36 0 83.5 30.5t57.5 85.5q-83 0 -83 72zM406 682q0 64 28.5 93.5t88.5 29.5q91 0 91 -89q0 -294 -279 -294l13 72q36 0 83.5 30.5t57.5 85.5q-83 0 -83 72z" />
<glyph unicode="&#x201e;" horiz-adv-x="566" d="M5 58q0 64 28.5 93.5t89.5 29.5q90 0 90 -89q0 -294 -278 -294l13 72q53 0 105 50q29 28 35 66q-83 0 -83 72zM276 58q0 64 29 93.5t89 29.5q90 0 90 -89q0 -294 -278 -294l13 72q53 0 105 50q29 28 35 66q-83 0 -83 72z" />
<glyph unicode="&#x2020;" horiz-adv-x="383" d="M200 98h-87l47 381h-101l16 90h101l33 190h127l-33 -190h102l-16 -90h-102z" />
<glyph unicode="&#x2021;" horiz-adv-x="409" d="M213 99h-87l23 182h-112l16 90h107l13 108h-101l16 90h101l33 190h127l-33 -190h102l-16 -90h-102l-25 -108h108l-16 -90h-113z" />
<glyph unicode="&#x2022;" horiz-adv-x="406" d="M61 253q0 90 39.5 131t124.5 41q58 0 87.5 -24t29.5 -79q0 -89 -40.5 -129.5t-124.5 -40.5q-59 0 -87.5 23.5t-28.5 77.5z" />
<glyph unicode="&#x2026;" horiz-adv-x="786" d="M5 58q0 64 28 93.5t89 29.5q84 0 84 -74q0 -63 -28.5 -92t-89.5 -29q-83 0 -83 72zM253 58q0 64 28.5 93.5t88.5 29.5q84 0 84 -74q0 -63 -28.5 -92t-89.5 -29q-83 0 -83 72zM508 58q0 64 28 93.5t89 29.5q84 0 84 -74q0 -63 -28.5 -92t-89.5 -29q-83 0 -83 72z" />
<glyph unicode="&#x2030;" horiz-adv-x="1205" d="M258 727q127 0 127 -109q0 -18 -4 -40l-12 -70q-27 -152 -177 -152q-128 0 -128 109q0 20 4 43l12 70q25 149 178 149zM170 482q0 -38 38 -38q22 0 35.5 14t20.5 52l12 66q2 12 2 22q0 41 -36 41q-46 0 -57 -63l-12 -66q-3 -16 -3 -28zM103 0l521 727h140l-521 -727h-140 zM670 355q128 0 128 -107q0 -19 -4 -42l-13 -70q-14 -77 -56.5 -114.5t-119.5 -37.5q-129 0 -129 109q0 19 4 43l13 70q27 149 177 149zM584 111q0 -39 36 -39q22 0 36.5 14t20.5 52l11 66q2 12 2 22q0 41 -36 41q-46 0 -57 -63l-11 -66q-2 -15 -2 -27zM1038 355 q128 0 128 -107q0 -19 -4 -42l-13 -70q-14 -77 -56.5 -114.5t-119.5 -37.5q-129 0 -129 109q0 19 4 43l13 70q27 149 177 149zM952 111q0 -39 36 -39q22 0 36.5 14t20.5 52l11 66q2 12 2 22q0 41 -36 41q-46 0 -57 -63l-11 -66q-2 -15 -2 -27z" />
<glyph unicode="&#x2039;" horiz-adv-x="285" d="M148 84l-117 143l13 75l167 143l50 -78l-120 -103l84 -102z" />
<glyph unicode="&#x203a;" horiz-adv-x="285" d="M229 227l-167 -143l-49 78l120 102l-84 103l77 78l117 -143z" />
<glyph unicode="&#x20ac;" horiz-adv-x="697" d="M324 -14q-142 0 -197 62q-39 44 -39 121q0 33 7 71h-72l16 89h72l10 60h-72l16 89h72q45 249 325 249q133 0 191 -59q44 -46 44 -118q0 -22 -4 -47h-181q1 7 1 13q0 21 -17.5 38.5t-61.5 17.5q-92 0 -117 -94h144l-16 -89h-144l-10 -60h144l-16 -89h-144q-1 -13 -1 -24 q0 -37 17.5 -56t61.5 -19q94 0 113 107h180l-5 -29q-40 -233 -317 -233z" />
<glyph unicode="&#x2122;" horiz-adv-x="965" d="M684 759l50 -182l115 182h133l-71 -404h-117l36 208l-85 -136h-74l-39 136l-36 -208h-117l71 404h134zM486 651h-122l-52 -296h-133l52 296h-122l19 108h377z" />
<glyph unicode="&#x2260;" horiz-adv-x="481" d="M390 95h-159l-41 -95h-140l41 95h-72l21 118h103l41 93h-128l21 118h158l62 140h140l-62 -140h73l-21 -118h-103l-41 -93h128z" />
<glyph unicode="&#xe000;" horiz-adv-x="490" d="M0 490h490v-490h-490v490z" />
<glyph unicode="&#xfb01;" horiz-adv-x="820" d="M710 154q0 -26 26.5 -26t44.5 10l-5 -113q-48 -39 -108 -39q-91 0 -118 42q-17 27 -17 59t4 56l35 197h-282q71 -57 118.5 -148t47.5 -210q0 -146 -74.5 -239.5t-202 -93.5t-169.5 63q-26 40 -26 97.5t10 114.5l128 724h170l-30 -167h505l-56 -315q-1 -6 -1 -12zM280 -24 q0 145 -60 269l-56 -320q-6 -35 -6 -61q0 -72 47 -72q31 0 53 50t22 134zM699 572q-84 0 -84 63q0 15 4 34q13 53 39.5 75.5t72 22.5t66 -17.5t20.5 -56.5q0 -63 -28.5 -92t-89.5 -29z" />
<glyph unicode="&#xfb02;" horiz-adv-x="811" d="M456 -18q0 -146 -74.5 -239.5t-202 -93.5t-169.5 63q-26 40 -26 97.5t10 114.5l128 724h170l-30 -167h249l-25 -141h-196q71 -57 118.5 -148t47.5 -210zM258 -158q22 50 22 131.5t-16.5 164.5t-39.5 130l-60 -343q-6 -35 -6 -61q0 -72 47 -72q31 0 53 50zM701 154 q0 -26 26.5 -26t44.5 10l-5 -113q-48 -39 -108 -39q-91 0 -117 42q-18 27 -18 59t4 56l109 616h170l-105 -593q-1 -6 -1 -12z" />
<glyph horiz-adv-x="1327" d="M879 358l5 -94h-113q0 160 8 213l3 20h76q6 -42 6 -74l2 10q18 68 79 68q40 0 56.5 -23.5t17.5 -77.5l2 -136h-112l2 94q0 25 -15 25q-17 0 -17 -25zM168 264h-116q0 138 8 268l3 39h95q10 -137 10 -307zM1251 468q26 -33 26 -89.5t-30.5 -88.5t-90 -32t-90 32t-30.5 87 q0 124 120 124q69 0 95 -33zM1156.5 336q23.5 0 23.5 28.5t-23.5 28.5t-23.5 -28.5t23.5 -28.5zM435 264h-76l-9 58q-12 -64 -74 -64q-89 0 -89 112q0 65 31 98t101 33q116 0 116 -112v-125zM314 336q24 0 24 28.5t-24 28.5q-21 0 -21 -28.5t21 -28.5zM625 -57h-127 q0 139 8 249l3 33h78q7 -51 7 -75q14 83 78 83q35 0 56.5 -29.5t21.5 -89t-33 -94.5t-94 -35q2 -15 2 -42zM646 102q0 21 -19 21q-23 0 -23 -30l4 -27q14 0 26 10.5t12 25.5zM931 59q22 0 41 15v-73q-21 -16 -80 -16t-92 32.5t-33 88.5q0 127 123 127q52 0 82 -30.5 t30 -83.5l-5 -36h-120q0 -24 54 -24zM871 108h39q1 3 1 8q0 19 -18 19q-22 0 -22 -27zM469 322l2 86h-23v83l116 36l4 -30h172q8 -63 8 -233h-114q0 110 2 144h-57l2 -63q2 -2 11 -2l17 4v-72q-7 -17 -62 -17q-78 0 -78 64zM691 510q-25 0 -42 17.5t-17 42.5t17 42.5 t42 17.5t42 -17.5t17 -42.5t-17 -42.5t-42 -17.5zM443 -24q-36 -33 -105.5 -33t-101.5 21v83q25 -19 63 -19t56 9t21 18l4 9q-11 -15 -57 -15q-93 0 -93 74v8h-45l2 -61q16 0 28 6v-74q-18 -17 -67 -17q-73 0 -73 64l2 82h-27v83l121 40l4 -29h165q-2 -102 -2 -106 q0 -26 15.5 -26t15.5 26l-2 106h106q6 -58 6 -137t-36 -112zM1056 183v-11h-8v37h16q15 0 15 -12q0 -9 -8 -12l8 -13h-9l-7 11h-7zM1056 190h8q7 0 7 6t-7 6h-8v-12zM1062 153q-15 0 -26 11t-11 26t11 26t26 11t26 -11t11 -26t-11 -26t-26 -11zM1092 190q0 12 -9 21t-21 9 t-21 -9t-9 -21t9 -21t21 -9t21 9t9 21z" />
</font>
</defs>
</svg>
