<?xml version="1.0" standalone="no"?>
<!DOCTYPE svg PUBLIC "-//W3C//DTD SVG 1.1//EN" "http://www.w3.org/Graphics/SVG/1.1/DTD/svg11.dtd" >
<svg xmlns="http://www.w3.org/2000/svg">
<metadata>
This is a custom SVG webfont generated by Font Squirrel.
Copyright   : Copyright c 2011 JM Sole infojmsolecl with Reserved Font Name Alfa Slab One
Designer    : JM Sole
Foundry     : JM Sole
</metadata>
<defs>
<font id="AlfaSlabOneRegular" horiz-adv-x="796" >
<font-face units-per-em="2048" ascent="1638" descent="-410" />
<missing-glyph horiz-adv-x="614" />
<glyph unicode=" "  horiz-adv-x="614" />
<glyph unicode="&#x09;" horiz-adv-x="614" />
<glyph unicode="&#xa0;" horiz-adv-x="614" />
<glyph unicode="!" horiz-adv-x="702" d="M41 1489v104h612v-104l-96 -1106h-422zM109 0v313h473v-313h-473z" />
<glyph unicode="&#x22;" horiz-adv-x="763" d="M57 1139l88 454h275l-158 -454h-205zM350 1139l88 454h273l-156 -454h-205z" />
<glyph unicode="#" horiz-adv-x="1499" d="M45 395l33 285h231l27 215h-250l33 285h254l51 413h291v-45l-47 -368h245l52 413h290v-45l-47 -368h246l-33 -285h-247l-27 -215h266l-33 -285h-268l-47 -395h-293v45l43 350h-244l-47 -395h-293v45l43 350h-229zM606 680h244l27 215h-244z" />
<glyph unicode="$" horiz-adv-x="1404" d="M45 1128q0 211 123 334t403 152v235h269v-231q147 -8 272 -40t177 -59l52 -28v-367h-430q0 102 -112 103q-68 0 -97.5 -17.5t-29.5 -60.5q0 -33 26.5 -49.5t100.5 -38.5q113 -37 184.5 -64.5t155.5 -76t131 -102.5t78.5 -136t31.5 -184q0 -233 -138 -364.5t-402 -156.5 v-247h-269v245q-307 21 -508 107v405h451q0 -66 26.5 -93t100.5 -27q125 0 125 82q0 29 -25.5 52t-93.5 48q-135 51 -220 89t-165 88t-123 104.5t-68.5 129t-25.5 168.5z" />
<glyph unicode="%" horiz-adv-x="1740" d="M29 1210q0 221 93 316.5t267 95.5q172 0 263 -96t91 -316q0 -221 -91 -316t-263 -95q-174 0 -267 94t-93 317zM160 0v66l1128 1527h291v-65l-1126 -1528h-293zM315 1217q0 -129 12.5 -165t55.5 -36t56.5 38t13.5 162.5t-13.5 162.5t-56.5 38q-41 0 -54.5 -38.5 t-13.5 -161.5zM997 383q0 221 93.5 316.5t267.5 95.5q172 0 263 -96.5t91 -315.5q0 -221 -91 -316.5t-263 -95.5q-174 0 -267.5 94.5t-93.5 317.5zM1284 389q0 -129 12.5 -165t55.5 -36t56 39t13 162q0 125 -13 163t-56 38q-41 0 -54.5 -39t-13.5 -162z" />
<glyph unicode="&#x26;" horiz-adv-x="1611" d="M-10 430q0 258 301 408q-115 86 -172.5 170t-57.5 198q0 197 182.5 306.5t473.5 109.5q170 0 317.5 -38t209.5 -76l63 -38v-393h-430v29q0 152 -140 151q-129 0 -129 -108q0 -12 4 -24.5t12.5 -25t16.5 -21.5t23.5 -22.5t23.5 -19.5t27.5 -20.5t25.5 -20.5l334 -252 q4 33 8 99v37h494v-342h-119l-18 -68l184 -139l-250 -330l-149 115q-190 -143 -510 -144q-348 0 -536.5 122t-188.5 337zM547 442q0 -55 42 -80.5t148 -25.5q94 0 154 37l-260 200q-84 -43 -84 -131z" />
<glyph unicode="'" horiz-adv-x="520" d="M57 1139l88 454h322l-158 -454h-252z" />
<glyph unicode="(" horiz-adv-x="716" d="M74 672q0 209 46 404.5t112.5 324.5t132 228.5t111.5 144.5l46 45l223 -103q-12 -16 -31.5 -49t-69.5 -138.5t-88 -220t-69.5 -288.5t-31.5 -348q0 -506 227 -929l63 -105l-223 -107q-10 8 -25.5 23.5t-62.5 71t-89 117.5t-94 163.5t-89 210t-62.5 255t-25.5 300.5z" />
<glyph unicode=")" horiz-adv-x="716" d="M-29 -362q12 16 32 46.5t70 135t88 217.5t69.5 286t31.5 349q0 504 -229 938l-62 106l224 103q18 -16 47.5 -47t107.5 -140.5t137.5 -232.5t107.5 -320.5t48 -406.5q0 -154 -24.5 -300.5t-64.5 -257t-88 -207.5t-95 -165t-87 -117t-65 -71l-24 -23z" />
<glyph unicode="*" horiz-adv-x="837" d="M33 1128l22 19l205 67l-205 68l-22 14l123 211l24 -14l154 -127l-37 193v34h246v-34l-37 -193l151 127l23 14l125 -211l-25 -14l-207 -68l207 -67l25 -19l-125 -204l-23 14l-151 123l37 -193v-30h-246v30l37 193l-154 -123l-24 -14z" />
<glyph unicode="+" horiz-adv-x="1179" d="M82 530v342h338v338h342v-338h336v-342h-336v-337h-342v337h-338z" />
<glyph unicode="," horiz-adv-x="501" d="M82 -330l106 330h-104v336h319v-336l-145 -330h-176z" />
<glyph unicode="-" d="M70 485v336h657v-336h-657z" />
<glyph unicode="." horiz-adv-x="499" d="M82 0v336h319v-336h-319z" />
<glyph unicode="/" horiz-adv-x="866" d="M-41 -244l657 1968h291v-65l-655 -1968h-293v65z" />
<glyph unicode="0" horiz-adv-x="1499" d="M29 796.5q0 825.5 720.5 825.5t720.5 -825.5t-720.5 -825.5t-720.5 825.5zM610 487q0 -151 139.5 -151t139.5 151v619q0 152 -139.5 151.5t-139.5 -151.5v-619z" />
<glyph unicode="1" horiz-adv-x="1083" d="M29 1257v232l454 104h396v-1257h172v-336h-961v336h197v921h-258z" />
<glyph unicode="2" horiz-adv-x="1329" d="M25 0v313q725 610 725 793q0 152 -139.5 151.5t-139.5 -151.5v-102h-410v485q27 16 79.5 40.5t220 65.5t348.5 41q578 0 577 -479q0 -70 -22.5 -141.5t-51 -129t-87 -128t-98.5 -114.5t-119 -113.5t-114.5 -99.5t-117.5 -95h250v117h399v-453h-1300z" />
<glyph unicode="3" horiz-adv-x="1275" d="M49 113v432h410v-58q0 -152 139 -151q72 0 105.5 40t33.5 132q0 152 -143 151h-148v310h146q145 0 145 137q0 152 -139 151.5t-139 -151.5v-35h-410v418q23 14 67 36.5t196.5 59.5t322.5 37q283 0 434.5 -119t151.5 -336q0 -86 -34 -159.5t-69 -108.5t-86 -76v-20 q41 -27 72 -51.5t68.5 -66.5t58 -101.5t20.5 -130.5q0 -225 -160.5 -353.5t-476.5 -128.5q-160 0 -301 36t-202 71z" />
<glyph unicode="4" horiz-adv-x="1421" d="M37 473v350l248 770h485l-252 -809h184v281h531v-281h164v-311h-164v-113h125v-360h-916v360h260v113h-665z" />
<glyph unicode="5" horiz-adv-x="1333" d="M57 762l76 831h1090v-397h-680l-19 -213q123 70 279 70q236 0 369 -138.5t133 -367.5q0 -281 -170 -438.5t-473 -157.5q-168 0 -317.5 37t-215.5 73l-66 37v412h476q-4 -150 110 -150q59 0 83 43t24 142q0 104 -24.5 151t-86.5 47q-106 0 -106 -122h-389z" />
<glyph unicode="6" horiz-adv-x="1419" d="M37 684q0 483 204.5 710.5t567.5 227.5q129 0 252 -25.5t182 -51.5l60 -25v-330q-203 68 -404 67q-141 0 -211 -75.5t-70 -204.5v-59q143 57 302 57q100 0 181 -21.5t151.5 -70.5t110.5 -142.5t40 -222.5q0 -547 -645 -547q-340 0 -530.5 179.5t-190.5 533.5zM618 487 q0 -152 139.5 -151.5t139.5 151.5q0 166 -145 166q-29 0 -62 -7t-52 -13l-20 -6v-140z" />
<glyph unicode="7" horiz-adv-x="1290" d="M20 1008v585h1287v-311q-18 -29 -51 -81t-115 -205.5t-145.5 -301t-115 -342t-51.5 -352.5h-579q0 412 368 995q78 123 138 201h-305v-188h-431z" />
<glyph unicode="8" horiz-adv-x="1433" d="M20 434q0 240 208 352q44 24 79 33v21q-10 2 -26.5 8t-57.5 31.5t-72.5 59.5t-58 94.5t-26.5 133.5q0 199 170 327t481 128t479 -128t168 -327q0 -74 -24.5 -134t-59.5 -94t-70.5 -58.5t-60.5 -32.5l-25 -8v-21q12 -2 32 -9t69 -36t88 -66.5t69.5 -107.5t30.5 -154 q0 -219 -182 -347t-514 -128q-330 0 -513.5 126t-183.5 337zM557 487q0 -152 160 -152t160 152q0 180 -160 180.5t-160 -180.5zM578 1106q0 -57 35.5 -92t103 -35t103.5 35t36 92q0 152 -139 152t-139 -152z" />
<glyph unicode="9" horiz-adv-x="1419" d="M20 1065q0 557 646 557q348 0 534 -177t186 -536q0 -500 -196.5 -719t-575.5 -219q-125 0 -250.5 26t-189.5 51l-63 26v329q221 -68 444 -67q123 0 186.5 72.5t63.5 207.5v43q-143 -57 -301 -57q-483 0 -484 463zM526 1085q1 -161 146 -161q29 0 61.5 7t51.5 13l20 6v156 q0 152 -139 151q-72 0 -106 -39.5t-34 -132.5z" />
<glyph unicode=":" horiz-adv-x="499" d="M82 0v336h319v-336h-319zM82 666v335h319v-335h-319z" />
<glyph unicode=";" horiz-adv-x="501" d="M82 -330l106 330h-104v336h319v-336l-145 -330h-176zM84 666v335h319v-335h-319z" />
<glyph unicode="&#x3c;" horiz-adv-x="1021" d="M74 471v377l815 332h43v-320l-555 -188v-23l555 -190v-318h-43z" />
<glyph unicode="=" horiz-adv-x="1013" d="M82 250v342h850v-342h-850zM82 793v340h850v-340h-850z" />
<glyph unicode="&#x3e;" horiz-adv-x="1021" d="M90 141v318l555 190v23l-555 188v320h43l815 -332v-377l-815 -330h-43z" />
<glyph unicode="?" horiz-adv-x="1257" d="M4 1464q35 18 94.5 44t229.5 70t323 44q270 0 432 -126t162 -318q0 -133 -48 -224.5t-116.5 -141.5t-137.5 -94t-117 -114t-48 -172h-489v111q0 96 39 170.5t95 119t111.5 82t94.5 79.5t39 91q0 82 -123 82q-86 0 -194.5 -30.5t-173.5 -60.5l-64 -29zM289 0v336h487v-336 h-487z" />
<glyph unicode="@" horiz-adv-x="2351" d="M66 440q0 266 96 490.5t261 374t386 233.5t471 84q463 0 730 -237.5t267 -641.5q0 -195 -52 -347t-139 -242.5t-191.5 -136.5t-215.5 -46q-274 0 -329 211q-57 -82 -156.5 -146.5t-226.5 -64.5q-195 0 -298.5 135.5t-103.5 374.5q0 334 190.5 510t493.5 176 q254 0 525 -123v-714q0 -45 43 -45q51 0 90 113.5t39 299.5q0 309 -183.5 463t-525.5 154q-375 0 -607.5 -234.5t-232.5 -611.5q0 -336 167 -488.5t460 -152.5q121 0 222.5 12.5t143.5 24.5l42 12v-297q-186 -63 -441 -63q-451 0 -688 231.5t-237 691.5zM1065 426 q0 -111 94 -111q84 0 144 84v471q-53 14 -103 15q-61 0 -98 -50t-37 -122v-287z" />
<glyph unicode="A" horiz-adv-x="1650" d="M37 0v336h82l346 1257h745l346 -1257h82v-336h-802v336h122l-34 164h-277l-33 -164h123v-336h-700zM692 717h189l-84 407h-21z" />
<glyph unicode="B" horiz-adv-x="1628" d="M53 0v336h123v921h-123v336h961q256 0 399 -104.5t143 -298.5q0 -92 -35.5 -167t-93 -118t-109.5 -66.5t-101 -33.5v-21q378 -39 378 -368q0 -217 -161.5 -316.5t-419.5 -99.5h-961zM750 336h124q119 0 119 131v90q0 131 -119 131h-124v-352zM750 922h110q119 0 119 131 v73q0 131 -119 131h-110v-335z" />
<glyph unicode="C" horiz-adv-x="1511" d="M37 796.5q0 825.5 782 825.5q178 0 336 -38t226 -76l69 -38v-512h-492v148q0 152 -138 152h-1q-139 0 -139 -152v-619q0 -152 139 -152t139 152v166h492v-530q-27 -16 -75 -42t-212 -68t-340 -42q-786 0 -786 825.5z" />
<glyph unicode="D" horiz-adv-x="1691" d="M57 0v336h123v919h-123v338h852q164 0 295 -42t234.5 -131t160 -247.5t56.5 -375.5t-56.5 -376t-160 -248t-234.5 -131t-295 -42h-852zM754 336h118q139 0 140 151v619q0 151 -138 151h-2h-118v-921z" />
<glyph unicode="E" horiz-adv-x="1505" d="M53 0v336h123v921h-123v336h1403v-618h-459v282h-247v-323h180v-234h-180v-364h247v323h459v-659h-1403z" />
<glyph unicode="F" horiz-adv-x="1318" d="M57 0v336h123v921h-123v336h1246v-530h-363v194h-186v-339h309v-234h-309v-348h268v-336h-965z" />
<glyph unicode="G" horiz-adv-x="1622" d="M41 797q0 432 205 628.5t588 196.5q373 0 638 -122l23 -11v-490h-512v97q0 86 -36 123.5t-113.5 37.5t-113.5 -37.5t-36 -123.5v-598q0 -86 36 -124t113.5 -38t113.5 38t36 124v14h-111v305h725v-305h-102v-410q-27 -14 -79 -35.5t-224 -58.5t-354 -37q-385 0 -591 197 t-206 629z" />
<glyph unicode="H" horiz-adv-x="1777" d="M49 0v336h123v921h-123v336h801v-336h-105v-311h308v311h-105v336h801v-336h-123v-921h123v-336h-801v336h105v338h-308v-338h105v-336h-801z" />
<glyph unicode="I" horiz-adv-x="897" d="M49 0v336h123v921h-123v336h819v-336h-123v-921h123v-336h-819z" />
<glyph unicode="J" horiz-adv-x="1069" d="M29 14v344q98 -22 186 -22q154 0 154 192v729h-228v336h924v-336h-123v-710q0 -295 -169 -435.5t-441 -140.5q-88 0 -164 10.5t-108 21.5z" />
<glyph unicode="K" horiz-adv-x="1708" d="M53 0v336h123v921h-123v336h697v-551l374 551h529v-336h-82l-322 -413l353 -508h81v-336h-610l-323 561v-561h-697z" />
<glyph unicode="L" horiz-adv-x="1374" d="M53 0v336h123v921h-123v336h885v-336h-188v-921h184v188h407v-524h-1288z" />
<glyph unicode="M" horiz-adv-x="2463" d="M49 0v336h123v921h-123v336h979l234 -702l225 702h944v-336h-123v-921h123v-336h-819v336h123v809l-408 -1145h-221l-463 1149v-813h123v-336h-717z" />
<glyph unicode="N" horiz-adv-x="1949" d="M45 0v336h123v921h-123v336h760l538 -823v487h-122v336h716v-336h-122v-1257h-576l-600 924v-588h123v-336h-717z" />
<glyph unicode="O" horiz-adv-x="1634" d="M41 796.5q0 825.5 782.5 825.5t782.5 -825.5t-782.5 -825.5t-782.5 825.5zM684 487q0 -151 139.5 -151t139.5 151v619q0 152 -139 152q-140 -1 -140 -152v-619z" />
<glyph unicode="P" horiz-adv-x="1544" d="M57 0v336h123v921h-123v336h920q264 0 403.5 -113.5t139.5 -367.5t-139.5 -367.5t-403.5 -113.5h-223v-295h196v-336h-893zM754 922h69q119 0 119 131v73q0 131 -119 131h-69v-335z" />
<glyph unicode="Q" horiz-adv-x="1662" d="M33 797q0 825 782 825q369 0 575.5 -191.5t206.5 -572.5q0 -106 -22.5 -193t-67.5 -151.5t-67.5 -90.5t-65.5 -67l12 -20h244v-496q-215 0 -362.5 5t-301 19.5t-261 41t-211 70.5t-181 110t-143.5 156q-137 199 -137 555zM676 487q0 -151 139 -151t139 151v619 q0 152 -138 152h-1q-139 -1 -139 -152v-619z" />
<glyph unicode="R" horiz-adv-x="1667" d="M53 0v336h123v921h-123v336h961q264 0 403 -108.5t139 -351.5q0 -137 -55 -237.5t-158 -139.5l3 -21q197 -31 196 -241v-158h96v-336h-649v481q0 117 -52 154t-187 37v-336h135v-336h-832zM750 922h110q119 0 119 131v73q0 131 -119 131h-110v-335z" />
<glyph unicode="S" horiz-adv-x="1404" d="M45 1128q0 242 161 368t537 126q176 0 326 -33t211 -65l61 -33v-367h-430q0 102 -112 103q-68 0 -97.5 -17.5t-29.5 -60.5q0 -33 26.5 -49.5t100.5 -38.5q113 -37 184.5 -64.5t155.5 -76t131 -102.5t78.5 -136t31.5 -184q0 -260 -172 -393.5t-503 -133.5q-362 0 -627 105 q-14 6 -15 6v405h451q0 -66 26.5 -93t100.5 -27q125 0 125 82q0 29 -25.5 52t-93.5 48q-135 51 -220 89t-165 88t-123 104.5t-68.5 129t-25.5 168.5z" />
<glyph unicode="T" horiz-adv-x="1576" d="M33 1098v495h1540v-495h-352v159h-131v-921h143v-336h-860v336h143v921h-131v-159h-352z" />
<glyph unicode="U" horiz-adv-x="1628" d="M45 1257v336h778v-336h-82v-790q0 -131 119 -131t119 131v790h-82v336h723v-336h-123v-686q0 -317 -170 -458.5t-487 -141.5q-672 0 -672 600v686h-123z" />
<glyph unicode="V" horiz-adv-x="1589" d="M29 1257v336h782v-336h-102l141 -808h20l142 808h-103v336h680v-336h-82l-325 -1257h-746l-325 1257h-82z" />
<glyph unicode="W" horiz-adv-x="2574" d="M29 1257v336h813v-336h-133l100 -768h20l236 1104h590l221 -1104h20l101 768h-133v336h710v-336h-82l-264 -1257h-715l-186 844h-20l-197 -844h-715l-284 1257h-82z" />
<glyph unicode="X" horiz-adv-x="1691" d="M57 0v336h82l238 477l-219 444h-82v336h651l152 -475h41l153 475h569v-336h-81l-220 -442l240 -479h82v-336h-651l-172 520h-41l-172 -520h-570z" />
<glyph unicode="Y" horiz-adv-x="1546" d="M25 1257v336h784v-336h-72l121 -317h21l120 317h-71v336h618v-336h-71l-396 -708v-213h123v-336h-819v336h123v213l-408 708h-73z" />
<glyph unicode="Z" horiz-adv-x="1427" d="M45 0v295l631 962h-193v-167h-407v503h1290v-295l-629 -962h254v168h408v-504h-1354z" />
<glyph unicode="[" horiz-adv-x="665" d="M90 -539v2327l547 47l25 -264l-228 -47v-1798l228 -48l-25 -264z" />
<glyph unicode="\" horiz-adv-x="868" d="M-41 1659v65h293l657 -1968v-65h-295z" />
<glyph unicode="]" horiz-adv-x="665" d="M4 -322l227 48v1798l-227 47l25 264l546 -47v-2327l-546 -47z" />
<glyph unicode="^" horiz-adv-x="845" d="M29 1069v31l239 493h310l239 -493v-31h-258l-127 291h-18l-127 -291h-258z" />
<glyph unicode="_" horiz-adv-x="1294" d="M33 -147h1229v-193h-1229v193z" />
<glyph unicode="`" horiz-adv-x="546" d="M-86 1538v55h438l223 -311v-31h-327z" />
<glyph unicode="a" horiz-adv-x="1335" d="M16 291q0 393 738 393q0 61 -39 90t-150 29q-213 0 -475 -60v353q239 71 558 71h9q317 0 442.5 -118.5t125.5 -376.5v-336h90v-336h-561v139q-131 -168 -359 -168q-178 0 -278.5 83t-100.5 237zM516 401q0 -65 110 -65h3q125 0 125 131v12q-121 0 -179.5 -16.5 t-58.5 -61.5z" />
<glyph unicode="b" horiz-adv-x="1359" d="M37 0v336h90v921h-90v336h561v-594q131 168 317 168q209 0 314.5 -155.5t105.5 -442t-105.5 -442.5t-314.5 -156q-186 0 -317 168v-139h-561zM598 467q0 -131 119 -131t119 131v205q0 131 -119 131t-119 -131v-205z" />
<glyph unicode="c" horiz-adv-x="1134" d="M16 569q0 293 164 445.5t455 152.5q125 0 242.5 -31.5t173.5 -63.5l55 -32v-405h-352v37q0 131 -119 131t-119 -131v-176q0 -160 182 -160q170 0 396 37v-322q-186 -80 -457 -80q-293 0 -457 152.5t-164 445.5z" />
<glyph unicode="d" horiz-adv-x="1343" d="M25 569.5q0 286.5 105.5 442t313.5 155.5q187 0 318 -168v258h-121v336h592v-1257h90v-336h-561v139q-131 -168 -318 -168q-209 0 -314 156t-105 442.5zM524 467q0 -131 119 -131t119 131v205q0 131 -119 131t-119 -131v-205z" />
<glyph unicode="e" horiz-adv-x="1204" d="M16 569q0 293 164 445.5t455 152.5q152 0 261.5 -44t168.5 -121.5t87 -167t28 -191.5v-147h-664v-13q0 -76 45 -111.5t150 -35.5q238 0 434 65v-327q-20 -12 -60.5 -28.5t-172.5 -45.5t-277 -29q-291 0 -455 152.5t-164 445.5zM516 659h238v13q0 131 -119 131t-119 -131 v-13z" />
<glyph unicode="f" horiz-adv-x="778" d="M37 0v336h90v467h-90v336h94q0 483 477 483q100 0 183 -13.5t116 -26.5l33 -13v-322q-100 10 -201 10q-80 0 -110.5 -26.5t-30.5 -91.5h160v-336h-160v-467h160v-336h-721z" />
<glyph unicode="g" horiz-adv-x="1343" d="M25 569.5q0 286.5 105.5 442t313.5 155.5q187 0 318 -168v140h561v-336h-90v-721q0 -297 -147.5 -431t-444.5 -134q-131 0 -254 16t-179 34l-56 17v336q217 -39 389 -39q117 0 169 36t52 134v88q-131 -168 -318 -168q-209 0 -314 156t-105 442.5zM524 467 q0 -131 119 -131t119 131v205q0 131 -119 131t-119 -131v-205z" />
<glyph unicode="h" horiz-adv-x="1417" d="M37 0v336h90v921h-90v336h561v-594q51 51 81 77t105.5 58.5t159.5 32.5q172 0 267.5 -122.5t95.5 -372.5v-336h90v-336h-652v336h91v336q0 131 -119 131t-119 -131v-336h90v-336h-651z" />
<glyph unicode="i" horiz-adv-x="708" d="M37 0v336h90v467h-90v336h561v-803h90v-336h-651zM156 1251v342h376v-342h-376z" />
<glyph unicode="j" horiz-adv-x="669" d="M-184 -104q106 -14 192 -15q137 0 137 148v774h-137v336h608v-1069q0 -553 -477 -553q-169 0 -323 45v334zM174 1251v342h377v-342h-377z" />
<glyph unicode="k" horiz-adv-x="1380" d="M37 0v336h90v921h-90v336h561v-831h49l254 377h432v-336h-84l-174 -195l197 -272h88v-336h-502l-211 393h-49v-393h-561z" />
<glyph unicode="l" horiz-adv-x="708" d="M37 0v336h90v921h-90v336h561v-1257h90v-336h-651z" />
<glyph unicode="m" horiz-adv-x="2125" d="M37 0v336h90v467h-90v336h561v-140q51 51 81 77t105.5 58.5t159.5 32.5q209 0 322 -168q57 53 93 81t116.5 57.5t177.5 29.5q172 0 267 -122.5t95 -372.5v-336h90v-336h-651v336h90v336q0 131 -118.5 131t-118.5 -131v-336h90v-336h-652v336h91v336q0 131 -119 131 t-119 -131v-336h90v-336h-651z" />
<glyph unicode="n" horiz-adv-x="1409" d="M33 0v336h90v467h-90v336h561v-140q51 51 81 77t105.5 58.5t159.5 32.5q172 0 267.5 -122.5t95.5 -372.5v-336h90v-336h-652v336h90v336q0 131 -118.5 131t-118.5 -131v-336h90v-336h-651z" />
<glyph unicode="o" horiz-adv-x="1269" d="M16 569q0 293 164 445.5t455 152.5t454.5 -152.5t163.5 -445.5t-163.5 -445.5t-454.5 -152.5t-455 152.5t-164 445.5zM516 467q0 -131 119 -131t119 131v205q0 131 -119 131t-119 -131v-205z" />
<glyph unicode="p" horiz-adv-x="1331" d="M8 -119h90v922h-90v336h561v-140q131 168 318 168q209 0 314.5 -155.5t105.5 -442t-105.5 -442.5t-314.5 -156q-186 0 -318 168v-258h142v-336h-703v336zM569 467q0 -131 119 -131t119 131v205q0 131 -119 131t-119 -131v-205z" />
<glyph unicode="q" horiz-adv-x="1339" d="M25 569.5q0 286.5 105.5 442t313.5 155.5q186 0 318 -168v140h561v-336h-90v-1258h-612v336h141v258q-131 -168 -318 -168q-209 0 -314 156t-105 442.5zM524 467q0 -131 119 -131t119 131v205q0 131 -119 131t-119 -131v-205z" />
<glyph unicode="r" horiz-adv-x="1067" d="M37 0v336h90v467h-90v336h561v-135l20 -7q33 70 99.5 120t163.5 50l166 -28v-355q-90 18 -191 19q-137 0 -197.5 -61.5t-60.5 -206.5v-199h186v-336h-747z" />
<glyph unicode="s" horiz-adv-x="1093" d="M12 793q0 170 128 272t395 102q139 0 257.5 -15t168.5 -31l49 -15v-277q-221 29 -389 29q-158 0 -158 -49q0 -25 31.5 -38t123.5 -21q240 -25 351.5 -117t111.5 -268q0 -188 -128 -291t-388 -103q-305 1 -493 64v284q249 -36 399 -36h8q147 0 148 53q0 29 -31 41t-127 26 q-457 61 -457 390z" />
<glyph unicode="t" horiz-adv-x="915" d="M8 803v336q156 0 156 149v92h434v-241h276v-336h-276v-336q0 -131 119 -131q33 0 76 4t68 9l26 5v-321q-154 -61 -352 -62q-217 0 -327 105.5t-110 355.5v371h-90z" />
<glyph unicode="u" horiz-adv-x="1384" d="M4 803v336h561v-672q0 -131 119 -131t119 131v336h-111v336h582v-803h90v-336h-561v139q-51 -51 -81 -76.5t-105.5 -58.5t-159.5 -33q-172 0 -267.5 123t-95.5 373v336h-90z" />
<glyph unicode="v" horiz-adv-x="1314" d="M8 803v336h639v-336h-92l111 -467h20l111 467h-92v336h602v-336h-88l-213 -803h-693l-219 803h-86z" />
<glyph unicode="w" horiz-adv-x="1976" d="M8 803v336h639v-336h-92l74 -422h20l158 758h397l166 -758h21l67 422h-94v336h604v-336h-88l-199 -803h-610l-74 344h-20l-70 -344h-604l-209 803h-86z" />
<glyph unicode="x" horiz-adv-x="1296" d="M37 0v336h96l115 248l-109 219h-88v336h545l94 -375h41l86 375h447v-336h-84l-107 -240l115 -227h88v-336h-543l-102 385h-41l-92 -385h-461z" />
<glyph unicode="y" horiz-adv-x="1327" d="M4 803v336h561v-672q0 -131 119 -131t119 131v336h-111v336h582v-1024q0 -598 -617 -598q-302 0 -520 67v336q201 -39 445 -39q117 0 169 36t52 136v86q-51 -51 -81 -76.5t-105.5 -58.5t-159.5 -33q-172 0 -267.5 123t-95.5 373v336h-90z" />
<glyph unicode="z" horiz-adv-x="1142" d="M20 0v305l500 498h-182v-74h-305v410h1075v-293l-487 -510h196v115h309v-451h-1106z" />
<glyph unicode="{" horiz-adv-x="612" d="M45 510v223q45 0 80 33t35 111q0 119 -27 285.5t-27 289.5q0 68 19.5 118t56.5 81.5t78 51t97.5 29t99.5 12.5t98 3v-182q-111 0 -111 -133q0 -104 25 -260t25 -271q0 -213 -158 -280q158 -70 158 -279q0 -115 -25 -270.5t-25 -259.5q0 -135 111 -136v-182q-70 0 -120 4 t-116.5 20.5t-109.5 47.5t-73 88t-30 137q0 121 27 288t27 288q0 76 -35 109.5t-80 33.5z" />
<glyph unicode="|" horiz-adv-x="522" d="M127 -670v2595h268v-2595h-268z" />
<glyph unicode="}" horiz-adv-x="612" d="M57 -324q113 0 113 136q0 104 -25.5 259.5t-25.5 270.5q0 209 160 279q-160 68 -160 280q0 115 25.5 270.5t25.5 260.5q0 133 -113 133v182q55 0 98.5 -3t99.5 -12.5t97 -29t78 -51t56.5 -81.5t19.5 -118q0 -123 -25.5 -290t-25.5 -285q0 -78 33.5 -111t78.5 -33v-223 q-43 0 -77.5 -34t-34.5 -109q0 -121 25.5 -288t25.5 -288q0 -80 -30 -137t-73 -88t-109.5 -47.5t-116.5 -20.5t-120 -4v182z" />
<glyph unicode="~" horiz-adv-x="1265" d="M61 489q0 373 312 373q125 0 296 -48t287 -48q133 0 134 74h114q0 -55 -4 -97.5t-20.5 -97.5t-47 -91t-88 -61.5t-137.5 -25.5q-123 0 -298 49t-296 49q-76 0 -109.5 -23.5t-33.5 -52.5h-109z" />
<glyph unicode="&#xa2;" horiz-adv-x="1134" d="M16 569q0 250 121 399.5t342 186.5v191h269v-185q98 -12 187 -41.5t130 -54.5l41 -25v-405h-352v37q0 131 -119 131t-119 -131v-176q0 -160 182 -160q170 0 396 37v-322q-139 -57 -346 -76v-188h-269v197q-221 37 -342 185t-121 400z" />
<glyph unicode="&#xa3;" horiz-adv-x="1261" d="M49 156q176 205 176 424q0 45 -2 65h-172v256h99q-47 104 -48 260q0 197 154 329t451 132t503 -117v-340h-370v43q-2 6 -6.5 15.5t-33 26t-73.5 16.5q-70 0 -101.5 -33t-31.5 -111q0 -66 43 -221h340v-256h-301q-2 -139 -60 -242q96 -41 185 -41q84 0 118.5 32t34.5 73 h299q0 -72 -7 -132.5t-33.5 -131t-70.5 -118.5t-126 -81t-193 -33q-96 0 -215 35t-194 35q-137 0 -189 -61z" />
<glyph unicode="&#xa5;" horiz-adv-x="1546" d="M25 1257v336h784v-336h-72l121 -317h21l120 317h-71v336h618v-336h-71l-185 -327h185v-162h-275l-78 -139h353v-162h-396v-131h123v-336h-819v336h123v131h-414v162h367l-80 139h-287v162h195l-189 327h-73z" />
<glyph unicode="&#xa9;" horiz-adv-x="1462" d="M49 940q0 283 200 482.5t482.5 199.5t482 -199.5t199.5 -482.5t-199.5 -482.5t-482 -199.5t-482.5 199.5t-200 482.5zM264 940q0 -195 136.5 -331t331 -136t330.5 136t136 331t-136 331t-330.5 136t-331 -136t-136.5 -331zM424 942q0 328 303 328q72 0 134.5 -16.5 t88.5 -32.5l27 -17v-200h-174v81q0 57 -76 58q-74 0 -74 -58v-288q0 -55 74 -56q76 1 76 56v90h174v-209q-88 -63 -248 -64q-305 0 -305 328z" />
<glyph unicode="&#xad;" d="M70 485v336h657v-336h-657z" />
<glyph unicode="&#xae;" horiz-adv-x="1462" d="M49 940q0 283 200 482.5t482.5 199.5t482 -199.5t199.5 -482.5t-199.5 -482.5t-482 -199.5t-482.5 199.5t-200 482.5zM264 940q0 -195 136.5 -331t331 -136t330.5 136t136 331t-136 331t-330.5 136t-331 -136t-136.5 -331zM432 627v141h55v350h-55v144h379 q215 0 215 -183q0 -113 -82 -153v-8q78 -16 78 -97v-53h41v-141h-248v188q0 47 -29 62.5t-90 15.5v-125h54v-141h-318zM696 993h74q41 0 41 51v43q0 51 -41 52h-74v-146z" />
<glyph unicode="&#xb4;" horiz-adv-x="571" d="M-23 1251v31l224 311h438v-55l-334 -287h-328z" />
<glyph unicode="&#x2000;" horiz-adv-x="962" />
<glyph unicode="&#x2001;" horiz-adv-x="1925" />
<glyph unicode="&#x2002;" horiz-adv-x="962" />
<glyph unicode="&#x2003;" horiz-adv-x="1925" />
<glyph unicode="&#x2004;" horiz-adv-x="641" />
<glyph unicode="&#x2005;" horiz-adv-x="481" />
<glyph unicode="&#x2006;" horiz-adv-x="320" />
<glyph unicode="&#x2007;" horiz-adv-x="320" />
<glyph unicode="&#x2008;" horiz-adv-x="240" />
<glyph unicode="&#x2009;" horiz-adv-x="385" />
<glyph unicode="&#x200a;" horiz-adv-x="106" />
<glyph unicode="&#x2010;" d="M70 485v336h657v-336h-657z" />
<glyph unicode="&#x2011;" d="M70 485v336h657v-336h-657z" />
<glyph unicode="&#x2012;" d="M70 485v336h657v-336h-657z" />
<glyph unicode="&#x2013;" horiz-adv-x="1230" d="M49 434v309h1133v-309h-1133z" />
<glyph unicode="&#x2014;" horiz-adv-x="2021" d="M49 434v309h1923v-309h-1923z" />
<glyph unicode="&#x2018;" horiz-adv-x="430" d="M82 1122v262l137 209h137l-88 -209h101v-262h-287z" />
<glyph unicode="&#x2019;" horiz-adv-x="430" d="M61 1331v262h287v-262l-137 -209h-137l88 209h-101z" />
<glyph unicode="&#x201c;" horiz-adv-x="790" d="M82 1122v262l137 209h137l-88 -209h101v-262h-287zM442 1122v262l138 209h137l-88 -209h100v-262h-287z" />
<glyph unicode="&#x201d;" horiz-adv-x="790" d="M61 1331v262h287v-262l-137 -209h-137l88 209h-101zM422 1331v262h287v-262l-138 -209h-137l88 209h-100z" />
<glyph unicode="&#x2022;" horiz-adv-x="702" d="M72 786q0 117 82 198t198 81q115 0 197 -81t82 -198q0 -115 -82 -195.5t-197 -80.5q-117 0 -198.5 80.5t-81.5 195.5z" />
<glyph unicode="&#x2026;" horiz-adv-x="1497" d="M1080 0v336h319v-336h-319zM581 0v336h319v-336h-319zM82 0v336h319v-336h-319z" />
<glyph unicode="&#x202f;" horiz-adv-x="385" />
<glyph unicode="&#x205f;" horiz-adv-x="481" />
<glyph unicode="&#x20ac;" horiz-adv-x="1480" d="M25 565v162h131q-2 23 -2 70q0 57 2 86h-131v161h149q109 578 789 578q131 0 253.5 -25.5t179.5 -51.5l56 -25l-55 -314q-166 51 -318 51q-240 0 -276 -213h565l-29 -161h-542v-156h516l-29 -162h-481q33 -229 276 -229q53 0 136 18.5t140 35.5l56 18v-314 q-8 -4 -22.5 -13t-63.5 -29.5t-102.5 -37t-136 -30t-166.5 -13.5q-653 0 -750 594h-145z" />
<glyph unicode="&#x2122;" horiz-adv-x="4039" d="M1625 0v336h123v921h-123v336h979l234 -702l225 702h944v-336h-123v-921h123v-336h-819v336h123v809l-408 -1145h-221l-463 1149v-813h123v-336h-717zM33 1098v495h1540v-495h-352v159h-131v-921h143v-336h-860v336h143v921h-131v-159h-352z" />
<glyph unicode="&#xe000;" horiz-adv-x="1140" d="M0 1140h1140v-1140h-1140v1140z" />
</font>
</defs>
</svg>
